<?xml version="1.0" standalone="no"?>
<!DOCTYPE svg PUBLIC "-//W3C//DTD SVG 1.1//EN" "http://www.w3.org/Graphics/SVG/1.1/DTD/svg11.dtd" >
<svg xmlns="http://www.w3.org/2000/svg">
<metadata>Generated by IcoMoon</metadata>
<defs>
<font id="icomoon" horiz-adv-x="1024">
<font-face units-per-em="1024" ascent="960" descent="-64" />
<missing-glyph horiz-adv-x="1024" />
<glyph unicode="&#x20;" horiz-adv-x="512" d="" />
<glyph unicode="&#xe900;" glyph-name="vehicles" d="M1020.74 617.67c-7.229 6.519-132.383 0-132.383 0s-46.606 108.141-95.095 156.611c-48.483 48.483-106.264 50.347-106.264 50.347h-349.976s-57.795-1.864-106.278-50.347c-48.483-48.476-95.089-156.611-95.089-156.611s-125.153 6.519-132.383 0c-7.223-6.519-1.857-52.204 14.923-65.256s72.718-9.332 72.718-9.332-20.719-30.979-32.631-50.101c-12.377-19.845-30.768-37.526-30.768-104.646s7.462-96.945 18.644-113.732c5.222-7.837 11.66-14.029 17.046-18.412v-128.881c0-30.891 25.033-55.931 55.931-55.931h72.172c30.897 0 55.938 25.040 55.938 55.931v80.172h529.517v-80.172c0-30.891 25.040-55.931 55.931-55.931h72.178c30.877 0 55.931 25.040 55.931 55.931v128.881c5.379 4.39 11.817 10.575 17.039 18.412 11.196 16.787 18.657 46.612 18.657 113.732s-18.405 84.801-30.775 104.646c-11.913 19.121-32.631 50.101-32.631 50.101s55.938-3.721 72.704 9.332c16.807 13.046 22.159 58.73 14.944 65.256zM186.655 306.292c-41.95 0-92.297 20.521-92.297 72.718 0 52.204 50.347 73.523 82.043 73.523s102.543-64.198 102.543-103.349c0-39.158-50.34-42.892-92.29-42.892zM232.339 546.816c0 56.866 30.761 108.148 58.737 137.974 27.969 29.826 40.079 41.021 69.919 41.021h302.039c29.839 0 41.957-11.196 69.926-41.021 27.962-29.826 58.723-81.108 58.723-137.974h-559.344zM837.359 306.292c-41.95 0-92.297 3.734-92.297 42.892 0 39.144 70.854 103.349 102.543 103.349 31.703 0 82.029-21.313 82.029-73.523 0.007-52.197-50.319-72.718-92.276-72.718h0.001z" />
<glyph unicode="&#xe901;" glyph-name="filter" d="M428.353-62.805c-6.574 0-13.107 1.932-18.698 5.755-9.025 6.212-14.432 16.439-14.432 27.375v433.609l-286.549 395.865c-4.069 5.618-6.274 12.418-6.274 19.401v107.67c0 18.316 14.821 33.13 33.13 33.13h755.323c18.309 0 33.13-14.814 33.13-33.13v-107.663c0-6.984-2.191-13.783-6.267-19.408l-286.522-395.865v-367.363c0-13.653-8.342-25.873-21.088-30.863l-169.711-66.253c-3.898-1.481-7.967-2.26-12.042-2.26zM168.653 829.945l286.549-395.858c4.076-5.632 6.274-12.425 6.274-19.408v-395.831l103.465 40.366v355.465c0 6.977 2.191 13.776 6.274 19.408l286.502 395.858v63.795h-689.063v-63.795z" />
<glyph unicode="&#xe902;" glyph-name="flag" d="M896.020 799.819c-181.084 0-264.506 36.093-352.905 74.301-95.703 41.376-194.724 84.193-412.699 84.193-17.374 0-31.43-14.056-31.43-31.43v-957.775c0-17.36 14.056-31.416 31.43-31.416 17.367 0 31.423 14.056 31.423 31.416v359.69c168.448-4.055 254.389-39.158 343.955-76.663 95.15-39.84 193.543-81.026 390.226-81.026 17.381 0 31.43 14.056 31.43 31.43v565.849c0 17.374-14.049 31.43-31.43 31.43v0.001zM864.591 234.332c-162.987 3.987-246.47 38.919-334.5 75.776-91.587 38.345-186.054 77.933-368.251 82.009v503.030c182.88-3.741 267.271-40.236 356.352-78.725 85.32-36.898 173.356-74.984 346.399-79.094v-502.996z" />
<glyph unicode="&#xe903;" glyph-name="share" d="M818.879 249.296c-48.012 0-90.453-22.323-119.043-56.586l-350.938 202.595c6.226 16.814 10.124 34.755 10.124 53.699s-3.898 36.884-10.124 53.699l350.938 202.656c28.563-34.297 71.025-56.6 119.043-56.6 85.825 0 155.641 69.803 155.641 155.593 0 85.818-69.816 155.648-155.641 155.648s-155.614-69.83-155.614-155.641c0-18.917 3.891-36.857 10.117-53.651l-350.938-202.656c-28.583 34.27-71.031 56.6-119.043 56.6-85.818 0-155.614-69.83-155.614-155.648 0-85.798 69.796-155.6 155.621-155.6 47.985 0 90.433 22.31 119.016 56.552l350.966-202.615c-6.226-16.8-10.117-34.748-10.117-53.692 0-85.791 69.789-155.593 155.614-155.593s155.641 69.803 155.641 155.593c-0.007 85.832-69.823 155.648-155.648 155.648zM818.879 907.503c56.88 0 103.144-46.264 103.144-103.144 0-56.859-46.264-103.096-103.144-103.096-37.984 0-70.881 20.89-88.76 51.548-0.055 0.082-0.055 0.184-0.109 0.287-0.055 0.075-0.109 0.102-0.157 0.177-8.704 15.121-14.090 32.399-14.090 51.084 0 56.88 46.264 103.144 103.117 103.144zM203.407 345.907c-56.852 0-103.124 46.244-103.124 103.103 0 56.88 46.271 103.144 103.124 103.144 37.888 0 70.717-20.787 88.637-51.316 0.102-0.184 0.082-0.362 0.184-0.539 0.048-0.102 0.177-0.13 0.225-0.232 8.718-15.121 14.077-32.399 14.077-51.057 0-18.616-5.338-35.833-13.995-50.934-0.102-0.157-0.259-0.205-0.335-0.362-0.102-0.177-0.102-0.416-0.205-0.594-17.92-30.481-50.736-51.214-88.59-51.214zM818.879-9.441c-56.852 0-103.117 46.23-103.117 103.096 0 18.712 5.386 36.017 14.118 51.159 0.055 0.089 0.109 0.116 0.157 0.15 0.055 0.102 0.055 0.225 0.096 0.348 17.92 30.624 50.784 51.48 88.747 51.48 56.88 0 103.144-46.264 103.144-103.137 0.007-56.859-46.264-103.096-103.144-103.096z" />
<glyph unicode="&#xe904;" glyph-name="heart-empty" d="M713.885 895.147c-73.694 0-164.659-39.711-204.657-59.092-40.004 19.381-130.97 59.092-204.657 59.092-147.087 0-304.572-127.652-304.572-317.679 0-103.588 83.197-231.404 247.282-379.938 18.207-16.48 226.379-194.744 261.973-194.744 8.492 0 16.787 2.533 23.839 7.257 49.678 33.28 485.362 332.015 485.362 567.433 0 190.020-157.484 317.672-304.572 317.672zM509.228 97.56c-137.353 96.29-423.561 328.335-423.561 479.908 0 149.388 129.434 232.011 218.904 232.011 61.133 0 153.791-42.68 184.327-59.119 12.684-6.833 27.969-6.833 40.653 0 30.543 16.439 123.201 59.119 184.334 59.119 89.463 0 218.897-82.623 218.897-232.011 0.007-151.572-286.201-383.618-423.554-479.908z" />
<glyph unicode="&#xe905;" glyph-name="phone" d="M757.064-62.259h-0.020c-30.461 0-72.977 3.461-106.018 19.511-103.226 18.057-298.039 142.432-385.242 246.395-103.943 87.17-228.332 281.989-246.368 385.263-40.96 85.088-17.517 289.683 74.158 338.992 82.978 44.619 198.868 29.792 200.895 29.553 10.342-1.359 19.012-8.492 22.296-18.391l96.591-289.348c2.41-7.216 1.693-15.094-1.987-21.777-3.686-6.656-9.967-11.503-17.367-13.312-30.392-7.537-77.961-28.010-88.508-49.971-1.932-4.021-3.359-9.318 0.717-18.104 30.925-66.662 132.116-168.332 133.14-169.349 1.010-1.004 102.714-102.229 169.335-133.14 3.768-1.754 7.229-2.635 10.301-2.635 23.108 0 48.401 52.524 57.774 90.467 1.83 7.366 6.67 13.681 13.326 17.326 6.656 3.734 14.561 4.403 21.77 1.993l289.369-96.584c9.871-3.297 17.012-11.953 18.398-22.282 0.635-4.792 14.909-118.204-29.58-200.922-34.639-64.369-145.060-93.682-232.98-93.682v-0.003zM245.569 905.585c-35.744 0-86.644-4.471-126.15-25.716-59.037-31.73-83.531-206.275-49.719-269.612 1.481-2.744 2.478-5.748 2.929-8.834 12.035-81.415 127.898-273.026 229.895-357.417 1.331-1.092 2.54-2.314 3.632-3.611 84.419-102.052 276.050-217.914 357.424-229.949 3.099-0.451 6.096-1.434 8.868-2.929 18.152-9.694 48.981-15.258 84.61-15.258h0.020c84.105 0 165.362 28.549 184.948 64.997 27.348 50.838 26.918 119.985 25.006 151.32l-245.937 82.104c-14.111-39.24-45.821-103.772-102.093-103.772-11.059 0-22.241 2.58-33.232 7.694-75.414 34.98-180.518 139.605-184.969 144.056-4.431 4.444-109.042 109.527-144.043 184.948-10.117 21.832-10.24 44.196-0.375 64.717 17.756 36.905 65.229 59.344 96.44 70.581l-82.097 245.937c-6.82 0.403-15.387 0.744-25.156 0.744z" />
<glyph unicode="&#xe906;" glyph-name="email" d="M993.84 820.053h-993.84v-742.898h1024v742.898h-30.16zM60.232 724.262l318.396-275.661-318.396-275.47v551.13zM424.625 408.781l67.775-58.675c5.666-4.922 12.684-7.359 19.722-7.359s14.063 2.437 19.722 7.359l67.659 58.545 313.556-271.264h-802.12l313.686 271.394zM645.495 448.505l318.273 275.545v-550.919zM913.060 759.822l-400.937-347.129-400.937 347.129h801.874z" />
<glyph unicode="&#xe907;" glyph-name="map" d="M990.529 956.095c-9.236 5.216-20.412 5.216-29.416-0.027l-295.049-171.233-295.11 171.226c-0.027 0-0.061 0-0.089 0.027v0c-0.771 0.457-1.748 0.314-2.553 0.689-3.871 1.748-7.885 3.209-12.070 3.181-4.553 0.027-8.97-1.379-13.155-3.461-0.457-0.232-1.031-0.15-1.522-0.403v0c-0.027-0.027-0.061-0.027-0.089-0.027l-309.794-179.773c-9.059-5.277-14.616-14.93-14.616-25.395v-785.121c0-10.486 5.618-20.173 14.705-25.45 4.526-2.587 9.605-3.898 14.65-3.898 5.1 0 10.172 1.311 14.732 3.946l295.083 171.24 295.165-171.288c4.581-2.587 9.632-3.898 14.671-3.898 5.045 0 10.090 1.311 14.671 3.898l0.061 0.048 309.78 179.773c9.059 5.263 14.623 14.909 14.623 25.395v785.128c-0.007 10.493-5.625 20.2-14.677 25.423h-0.001zM75.762 733.99l251.112 145.722v-717.244l-251.112-145.729zM385.57 879.705l251.133-145.722v-717.244l-251.133 145.722zM946.49 162.461l-251.078-145.722v717.251l251.078 145.722v-717.251z" />
<glyph unicode="&#xe908;" glyph-name="photo-blue" d="M886.054 27.723h-748.1c-76.070 0-137.953 61.891-137.953 137.967v476.781c0 76.070 61.884 137.96 137.953 137.96h204.657c19.299 52.92 70.137 90.822 129.666 90.822h79.449c59.529 0 110.367-37.902 129.673-90.822h204.657c76.049 0 137.946-61.891 137.946-137.96v-476.781c0-76.076-61.897-137.967-137.946-137.967zM137.953 686.121c-24.078 0-43.643-19.586-43.643-43.657v-476.781c0-24.064 19.565-43.657 43.643-43.657h748.1c24.064 0 43.636 19.586 43.636 43.657v476.788c0 24.071-19.565 43.657-43.636 43.657h-243.507c-26.051 0-47.152 21.108-47.152 47.152 0 24.078-19.586 43.67-43.67 43.67h-79.449c-24.084 0-43.663-19.593-43.663-43.67 0-26.044-21.108-47.152-47.159-47.152h-243.5zM511.98 206.807c-106.885 0-193.843 86.965-193.843 193.857 0 106.899 86.958 193.864 193.843 193.864 106.906 0 193.884-86.965 193.884-193.864 0-106.892-86.979-193.857-193.884-193.857zM511.98 500.224c-54.886 0-99.54-44.667-99.54-99.56s44.653-99.553 99.54-99.553c54.907 0 99.581 44.66 99.581 99.553s-44.674 99.56-99.581 99.56zM291.751 533.306c0-35.659-28.907-64.567-64.567-64.567s-64.567 28.907-64.567 64.567c0 35.659 28.907 64.567 64.567 64.567s64.567-28.907 64.567-64.567z" />
<glyph unicode="&#xe909;" glyph-name="thb" d="M711.509 484.304c40.564 35.396 66.813 86.856 66.813 144.814 0 106.387-86.562 192.942-192.949 192.942h-60.996v94.174c0 24.194-19.586 43.766-43.773 43.766-24.194 0-43.779-19.572-43.779-43.766v-94.167h-178.019c-24.194 0-43.766-19.579-43.766-43.766v-656.411c0-24.194 19.572-43.773 43.766-43.773h178.026v-97.969c0-24.201 19.586-43.766 43.779-43.766 24.187 0 43.773 19.565 43.773 43.766v97.969h60.996c122.887 0 222.863 99.977 222.863 222.829 0 76.035-38.427 143.135-96.734 183.357zM585.373 734.529c58.136 0 105.397-47.275 105.397-105.404 0-58.088-47.268-105.363-105.397-105.363h-60.996v210.767h60.996zM436.832 523.762h-134.253v210.767h134.253v-210.767zM302.578 165.656v270.561h134.253v-270.568l-134.253 0.007zM585.373 165.656h-60.996v270.561h60.996c74.629 0 135.318-60.696 135.318-135.277s-60.689-135.284-135.318-135.284z" />
<glyph unicode="&#xe90a;" glyph-name="lak" d="M681.397 386.601h252.839c33.362 0 60.382 26.993 60.382 60.368 0 33.362-27.020 60.361-60.382 60.361h-354.987l-29.826 35.198 314.088 310.784c23.702 23.456 23.934 61.658 0.457 85.354-23.388 23.75-61.699 23.866-85.34 0.471l-436.415-431.814h-18.091v392.308c0 33.369-27.013 60.368-60.368 60.368-33.369 0-60.368-26.999-60.368-60.368v-392.308h-115.712c-33.369 0-60.368-26.999-60.368-60.355 0-33.376 26.999-60.368 60.368-60.368h115.705v-392.247c0-33.376 27.006-60.368 60.368-60.368s60.368 26.993 60.368 60.368v325.277l67.673 66.97h131.393l364.96-431.090c11.96-14.090 29.007-21.34 46.155-21.34 13.735 0 27.6 4.71 38.96 14.261 25.423 21.586 28.604 59.658 7.086 85.122l-298.947 353.048z" />
<glyph unicode="&#xe90b;" glyph-name="usd" d="M776.527 290.98c3.843 144.022-127.788 180.408-243.917 212.617-2.137 0.601-3.843 1.113-5.939 1.795v225c45.568-5.127 93.191-19.818 126-40.666 20.33-13.066 47.404-6.915 60.396 13.503 12.984 20.33 6.833 47.316-13.496 60.3-46.988 29.901-110.886 49.118-172.899 54.497v98.236c0 24.173-19.558 43.738-43.738 43.738-24.173 0-43.732-19.565-43.732-43.738v-101.485c-88.542-16.568-151.286-72.595-168.113-156.481-21.484-130.526 76.793-186.218 168.107-217.655v-271.476c-49.589 7.687-94.993 24.262-121.856 46.469-18.664 15.544-46.251 12.827-61.542-5.803-15.421-18.623-12.773-46.135 5.85-61.508 41.943-34.686 106.947-58.429 177.548-67.14v-100.284c0-24.269 19.565-43.732 43.732-43.732 24.18 0 43.738 19.47 43.738 43.732v97.546c123.098 8.042 245.849 66.294 249.863 212.535zM357.11 642.574c10.247 50.743 45.998 73.38 82.091 83.203v-191.433c-62.621 25.887-90.631 56.129-82.091 108.23zM526.671 165.581v248.579c132.062-37.758 164.004-62.020 162.386-120.784-2.649-99.437-98.918-122.846-162.386-127.795z" />
<glyph unicode="&#xe90c;" glyph-name="user" d="M510.778 734.345c-104.707 0-189.897-85.19-189.897-189.925 0-104.707 85.19-189.897 189.897-189.897 104.735 0 189.959 85.19 189.959 189.897-0.007 104.735-85.224 189.925-189.959 189.925zM510.778 417.164c-70.164 0-127.249 57.078-127.249 127.249s57.085 127.283 127.249 127.283c70.205 0 127.311-57.112 127.311-127.283s-57.112-127.249-127.311-127.249zM511.939 959.973c-282.276 0-511.939-229.697-511.939-512.034 0-171.145 84.733-322.526 214.125-415.526 0.43-0.451 1.038-0.73 1.502-1.161 83.756-59.706 185.856-95.225 296.311-95.225 282.337 0 512.061 229.642 512.061 511.911 0 282.337-229.724 512.034-512.061 512.034zM275.763 66.492c24.624 56.429 54.538 114.893 66.499 124.682 20.767 13.681 118.292 35.997 168.578 35.997 50.196 0 147.715-22.323 168.052-35.697 12.418-10.131 42.735-69.277 67.482-126.095-68.335-42.025-148.48-66.703-234.435-66.703-86.685 0.007-167.444 25.108-236.175 67.816zM798.618 102.304c-24.569 55.706-58.58 123.986-84.828 141.21-37.526 24.651-153.033 46.312-202.95 46.312-49.985 0-165.581-21.661-202.957-46.312-26.064-17.073-59.679-84.248-84.214-139.728-98.318 82.493-161.021 206.111-161.021 344.153 0 247.801 201.551 449.386 449.29 449.386 247.801 0 449.42-201.585 449.42-449.386 0-138.848-63.386-263.154-162.741-345.634z" />
<glyph unicode="&#xe90d;" glyph-name="sort" d="M131.973 623.206c60.013 0 110.285 40.564 126.211 95.567h729.416c20.118 0 36.4 16.282 36.4 36.407 0 20.118-16.282 36.407-36.4 36.407h-729.416c-15.927 54.996-66.198 95.567-126.211 95.567-72.745 0-131.973-59.201-131.973-131.973 0-72.786 59.228-131.973 131.973-131.973zM131.973 814.339c32.638 0 59.16-26.522 59.16-59.16s-26.522-59.16-59.16-59.16-59.16 26.522-59.16 59.16 26.522 59.16 59.16 59.16zM987.6 177.227h-444.914c-15.933 55.002-66.205 95.573-126.218 95.573s-110.285-40.571-126.211-95.573h-253.85c-20.125 0-36.407-16.282-36.407-36.4s16.282-36.413 36.407-36.413h253.85c15.927-55.002 66.198-95.56 126.211-95.56 60.020 0 110.285 40.557 126.218 95.56h444.914c20.118 0 36.4 16.295 36.4 36.413s-16.282 36.4-36.4 36.4zM416.468 81.654c-29.368 0-52.763 21.907-57.31 49.985 0.785 3.024 1.85 5.932 1.85 9.189 0 3.229-1.065 6.13-1.85 9.161 4.553 28.092 27.942 49.985 57.31 49.985 32.638 0 59.167-26.522 59.167-59.146-0.007-32.638-26.528-59.174-59.167-59.174zM892.027 579.721c-59.945 0-110.148-40.462-126.143-95.321h-729.477c-20.125 0.007-36.407-16.282-36.407-36.4s16.282-36.407 36.407-36.407h729.334c15.858-55.146 66.137-95.812 126.287-95.812 72.738 0 131.973 59.201 131.973 131.98 0 72.765-59.235 131.959-131.973 131.959zM892.027 388.588c-32.638 0-59.16 26.522-59.16 59.167 0 32.631 26.522 59.16 59.16 59.16s59.16-26.528 59.16-59.16c0-32.645-26.522-59.167-59.16-59.167z" />
<glyph unicode="&#xe90e;" glyph-name="services" d="M1011.13 48.749c26.467 65.331 13.223 143.012-39.772 196-52.982 52.982-130.649 66.232-195.994 39.772l-426.66 426.667c26.46 65.338 13.21 143.012-39.772 195.994-52.989 52.989-130.662 66.246-196.021 39.779l124.948-124.942-99.703-99.69-124.928 124.928c-26.467-65.345-13.21-143.012 39.765-196 52.995-52.982 130.662-66.232 196.007-39.772l426.653-426.667c-26.46-65.345-13.21-143.019 39.772-196.014 52.995-52.982 130.669-66.239 196.007-39.765l-124.935 124.942 99.697 99.697 124.935-124.928zM594.179 488.455l255.42 255.42 126.491 107.882-60.143 60.163-107.943-126.553-255.372-255.379zM428.79 406.159l-22.576-22.576-8.533 8.527c-17.046 17.046-44.667 17.046-61.713 0l-323.195-323.195c-17.033-17.039-17.033-44.66 0.007-61.706l58.621-58.621c17.039-17.033 44.66-17.033 61.706 0l323.181 323.202c17.046 17.039 17.046 44.674 0 61.706l-8.54 8.54 22.576 22.569-41.534 41.554z" />
<glyph unicode="&#xe90f;" glyph-name="realestate" d="M514.096 632.306c-1.236 0.99-2.963 0.99-4.198 0l-349.908-285.252c-0.758-0.642-1.215-1.584-1.215-2.58v-275.292c0-16.466 13.387-29.853 29.853-29.853h199.018c16.452 0 29.853 13.387 29.853 29.853v210.616c0 12.793 10.417 23.224 23.217 23.224h142.575c12.8 0 23.211-10.431 23.211-23.224v-210.623c0-16.466 13.394-29.853 29.853-29.853h199.025c16.459 0 29.853 13.387 29.853 29.853v275.299c0 0.997-0.457 1.939-1.229 2.58zM1021.23 443.467l-156.017 127.188c0 0.068 0.027 0.137 0.027 0.198v272.555c0 7.325-5.953 13.264-13.271 13.264h-106.633c-7.332 0-13.271-5.939-13.271-13.264v-164.209l-215.859 175.971c-2.437 2-5.953 2-8.39 0l-505.037-411.703c-2.744-2.239-3.243-6.24-1.14-9.079l48.422-65.481c1.079-1.468 2.703-2.41 4.506-2.635 1.823-0.239 3.611 0.287 5.018 1.434l452.417 368.824 452.41-368.817c1.195-0.969 2.683-1.495 4.192-1.495 0.273 0 0.56 0.014 0.819 0.061 1.802 0.225 3.441 1.167 4.519 2.635l48.415 65.481c2.109 2.833 1.611 6.833-1.126 9.073z" />
<glyph unicode="&#xe910;" glyph-name="location" d="M512.014-64c-117.371 0-403.893 406.931-403.893 620.107 0.007 222.693 181.207 403.893 403.893 403.893 222.693 0 403.866-181.2 403.866-403.893 0-213.176-286.522-620.107-403.866-620.107zM512.014 895.679c-187.228 0-339.565-152.337-339.565-339.572 0-203.51 280.262-554.79 339.565-555.786 59.303 0.997 339.545 352.283 339.545 555.786 0 187.235-152.33 339.572-339.545 339.572zM512.014 333.251c-117.371 0-212.89 95.491-212.89 212.869s95.512 212.896 212.89 212.896c117.412 0 212.903-95.512 212.903-212.896 0-117.371-95.491-212.869-212.903-212.869zM512.014 694.688c-81.913 0-148.562-66.649-148.562-148.569 0-81.947 66.649-148.521 148.562-148.521 81.92 0 148.569 66.574 148.569 148.521 0.007 81.92-66.649 148.569-148.569 148.569z" />
<glyph unicode="&#xe911;" glyph-name="list" d="M985.839 960h-947.678c-21.094 0-38.161-17.067-38.161-38.161v-947.678c0-21.094 17.067-38.161 38.161-38.161h947.678c21.094 0 38.161 17.067 38.161 38.161v947.678c0 21.094-17.067 38.161-38.161 38.161zM947.678 883.678v-608.331l-238.135 238.135c-14.309 14.309-39.649 14.309-53.958 0l-230.455-230.496-91.15 91.116c-14.909 14.909-39.055 14.909-53.965 0l-203.694-203.66v713.236h871.357zM76.322 62.553l230.68 230.605 64.171-64.137-216.665-216.699h-78.186v50.231zM262.431 12.322l420.134 420.215 265.114-265.114v-155.109h-685.247zM307.002 505.801c77.51 0 140.643 63.092 140.643 140.643 0 77.585-63.126 140.718-140.643 140.718s-140.643-63.133-140.643-140.718c0-77.551 63.126-140.643 140.643-140.643zM307.002 710.84c35.478 0 64.321-28.877 64.321-64.403 0-35.471-28.843-64.321-64.321-64.321s-64.321 28.849-64.321 64.321c-0.007 35.519 28.836 64.403 64.321 64.403z" />
<glyph unicode="&#xe912;" glyph-name="jobs" d="M545.847 392.41h-67.7v52.64h-476.754v-417.246c0-19.681 15.954-35.649 35.642-35.649h949.924c19.688 0 35.642 15.968 35.642 35.649v417.246h-476.754v-52.64zM986.959 726.876h-225.457v176.961h-499.002v-176.968h-225.464c-19.688 0-35.642-15.961-35.642-35.649v-211.449h476.754v43.322h67.7v-43.322h476.754v211.456c0 19.688-15.954 35.649-35.642 35.649zM338.541 726.876v100.919h346.918v-100.919h-346.918z" />
<glyph unicode="&#xe913;" glyph-name="house-equip" d="M123.631 591.258h52.408c48.401 0 87.77-39.376 87.77-87.764v-105.424c0-8.363 6.772-15.135 15.135-15.135h466.111c8.363 0 15.135 6.772 15.135 15.135v105.424c0 48.394 39.376 87.764 87.764 87.764h52.422c8.356 0 15.128 6.765 15.135 15.128 0.020 39.479-19.197 79.865-52.709 110.81-34.639 31.99-79.333 49.603-125.829 49.603h-449.952c-46.496 0-91.184-17.613-125.829-49.603-33.512-30.945-52.722-71.332-52.695-110.81 0.007-8.356 6.779-15.128 15.135-15.128zM885.289 552.421c-27.027 0-48.381-7.782-63.468-23.129-21.531-21.893-21.292-51.057-21.279-52.040v-135.182h-577.085v134.929c0.007 1.242 0.253 30.399-21.286 52.292-15.080 15.346-36.434 23.129-63.461 23.129-75.189 0-138.711-49.207-138.711-107.445 0-44.155 38.714-81.797 53.972-94.925v-181.501c0-21.702 17.647-39.349 39.349-39.349h90.795c21.695 0 39.349 17.647 39.349 39.349v11.605h577.079v-11.605c0-21.702 17.654-39.349 39.349-39.349h90.801c21.695 0 39.342 17.647 39.342 39.349v181.494c15.258 13.128 53.972 50.777 53.972 94.925-0.007 58.245-63.529 107.452-138.718 107.452z" />
<glyph unicode="&#xe914;" glyph-name="hightech" d="M738.113 960h-452.226c-55.979 0-101.362-45.377-101.362-101.362v-821.282c0-55.979 45.377-101.362 101.362-101.362h452.226c55.979 0 101.362 45.377 101.362 101.362v821.282c0 55.985-45.384 101.362-101.362 101.362zM512-1.891c-39.54 0-71.605 32.065-71.605 71.605s32.065 71.605 71.605 71.605c39.54 0 71.605-32.065 71.605-71.605s-32.065-71.605-71.605-71.605zM742.011 201.1c0-12.916-10.472-23.395-23.395-23.395h-413.239c-12.923 0-23.388 10.479-23.388 23.395v641.952c0 12.916 10.472 23.388 23.388 23.388h413.239c12.923 0 23.395-10.472 23.395-23.388v-641.952z" />
<glyph unicode="&#xe915;" glyph-name="grid" d="M392.028 538.46h-350.269c-19.067 0-34.509 15.442-34.509 34.509v350.276c0 19.067 15.435 34.509 34.509 34.509h350.276c19.067 0 34.509-15.442 34.509-34.509v-350.283c-0.007-19.060-15.449-34.502-34.516-34.502zM76.268 607.478h281.245v281.259h-281.245zM392.028-61.754h-350.269c-19.067 0-34.509 15.421-34.509 34.516v350.263c0 19.067 15.435 34.516 34.509 34.516h350.276c19.067 0 34.509-15.449 34.509-34.516v-350.269c-0.007-19.087-15.449-34.509-34.516-34.509v-0.001zM76.268 7.25h281.245v281.252h-281.245zM982.241 538.46h-350.31c-19.067 0-34.509 15.442-34.509 34.509v350.276c0 19.067 15.442 34.509 34.509 34.509h350.304c19.081 0 34.509-15.442 34.509-34.509v-350.283c0.007-19.060-15.421-34.502-34.502-34.502zM666.453 607.478h281.279v281.259h-281.279v-281.259zM982.241-61.754h-350.31c-19.067 0-34.509 15.421-34.509 34.516v350.263c0 19.067 15.442 34.516 34.509 34.516h350.304c19.081 0 34.509-15.449 34.509-34.516v-350.269c0.007-19.087-15.421-34.509-34.502-34.509zM666.453 7.25h281.279v281.252h-281.279v-281.252z" />
<glyph unicode="&#xe916;" glyph-name="fashion" d="M995.738 177.869c-8.95 41.615-29.307 74.349-73.373 85.518-26.761 6.772-53.166 1.734-78.479-8.096-15.927-6.185-29.28-2.935-40.625 8.656-6.779 6.895-13.537 14.425-17.906 22.917-11.803 22.944-22.801 46.319-33.232 69.905-20.678 46.824-39.151 94.693-61.604 140.65-22.105 45.261-57.672 75.96-109.479 83.975-7.543 1.174-15.066 2.403-22.596 3.645-24.46 4.007-36.605 0.041-47.951-22.344-11.401-22.501-21.019-46.312-27.955-70.54-7.98-27.812-7.141-55.972 7.987-82.541 5.557-9.789 8.724-21.149 11.885-32.092 15.886-54.811 18.302-111.002 16.527-167.561-1.42-44.933-3.55-89.853-4.533-134.786-0.389-17.975 12.479-31.334 28.085-31.826 16.104-0.505 28.781 11.134 31.055 29.068 7.81 61.802 15.408 123.624 23.149 185.44 3.099 24.692 6.356 49.398 9.516 74.097 0.983 0.307 1.959 0.587 2.956 0.894 6.103-11.387 13.271-22.344 18.111-34.229 15.619-38.427 30.338-77.216 45.507-115.828 13.66-34.775 28.126-69.12 52.736-98.010 24.637-28.972 55.514-46.053 93.88-46.278 51.726-0.335 103.451 0.71 155.184 1.359 3.038 0.041 7.714 0.908 8.779 2.908 4.301 8.083 8.998 16.439 10.82 25.265 7.468 36.42 9.448 73.189 1.556 109.834zM610.741 184.211c-4.622-35.082-7.236-80.91-10.882-111.882-2.403-20.323-15.858-49.882-58.771-49.882-41.513 0-59.324 32.481-58.9 52.797 1.126 50.838 3.516 61.372 5.12 112.189 2.028 63.986-0.73 127.549-18.685 189.563-3.584 12.377-7.154 25.197-13.442 36.27h-0.232c-17.114 30.078-18.070 61.904-9.039 93.368 7.844 27.402 18.971 51.343 31.867 76.78 9.892 7.12 20.077 14.459 31.068 22.385-3.959 5.297-6.595 10.315-10.561 13.858-8.895 7.946-8.875 16.35-5.42 27.184 10.991 34.693 20.937 69.734 31.218 104.653 13.838 47.056 27.634 94.133 41.445 141.264-51.077 32.488-105.834 53.296-165.233 66.587v-167.765h-99.273v167.854c-58.805-13.756-113.698-33.758-164.222-66.41 0.969-3.837 1.864-7.905 3.038-11.906 23.347-79.626 46.838-159.198 69.809-238.933 1.468-5.12 0.437-12.438-2.273-17.053-19.927-33.935-43.281-66.096-60.484-101.294-51.425-105.288-84.637-216.706-104.823-332.035-11.708-66.895-19.21-134.253-18.848-202.267 0.014-5.038 2.499-12.588 6.226-14.63 14.37-7.892 29.129-16.077 44.769-20.384 39.328-10.827 78.411-6.185 115.808 8.936 19.463 7.851 37.676 18.787 56.682 28.413 61.645-75.237 151.518-72.397 210.603 0.573 16.452-8.827 32.195-18.999 49.213-26.105 56.054-23.456 111.828-26.187 165.622 6.909 4.069 2.519 8.096 8.827 8.226 13.51 2.123 69.864-17.934 136.363-31.239 205.428-13.332-2.772-25.45-5.277-38.386-7.974z" />
<glyph unicode="&#xe917;" glyph-name="dating" d="M512.587 0.492c0 0-512.587 313.856-512.587 638.723 0 141.551 114.749 256.3 256.3 256.3s228.884-119.46 256.287-182.845c27.423 63.386 114.763 182.845 256.307 182.845s256.3-114.749 256.3-256.294c0.007-324.874-512.608-638.73-512.608-638.73z" />
<glyph unicode="&#xe918;" glyph-name="date" d="M511.973 960c-282.289 0-511.973-229.69-511.973-512.027 0-282.289 229.683-511.973 511.973-511.973 282.344 0 512.027 229.683 512.027 511.973 0 282.337-229.683 512.027-512.027 512.027zM511.973-6.799c-250.764 0-454.786 204.001-454.786 454.772 0 250.791 204.022 454.84 454.786 454.84 250.791 0 454.833-204.049 454.833-454.84 0-250.771-204.042-454.772-454.833-454.772zM506.894 803.308c-15.811 0-28.597-12.786-28.597-28.59v-309.862l-207.817-207.831c-11.175-11.175-11.175-29.28 0-40.441 5.584-5.584 12.902-8.39 20.214-8.39s14.63 2.799 20.214 8.39l216.194 216.228c5.359 5.359 8.383 12.616 8.383 20.207v321.7c0 15.804-12.793 28.59-28.59 28.59z" />
<glyph unicode="&#xe919;" glyph-name="category" d="M0 147.277h211.267v-211.277h-211.267v211.277zM406.364 147.277h211.272v-211.277h-211.272v211.277zM812.728 147.277h211.272v-211.277h-211.272zM0 960h211.267v-211.267h-211.267v211.267zM0 553.636h211.267v-211.272h-211.267v211.272zM406.369 960h211.267v-211.267h-211.267zM406.369 553.636h211.267v-211.272h-211.267zM812.728 960h211.272v-211.267h-211.272zM812.728 553.636h211.272v-211.272h-211.272z" />
<glyph unicode="&#xe91a;" glyph-name="animals" d="M510.99 53.016c69.591 0 172.592-80.944 233.841-80.944s100.98 24.917 109.65 75.373c29.546 172.387-207.087 372.825-343.491 372.825-136.41 0-373.043-200.438-343.477-372.825 8.643-50.456 48.394-75.373 109.643-75.373 61.235-0.007 164.236 80.944 233.834 80.944zM472.18 792.833c27.090-90.593-6.48-180.638-74.979-201.121s-145.991 36.351-173.080 126.944c-27.090 90.593 6.48 180.638 74.979 201.121s145.991-36.351 173.080-126.944zM238.146 533.056c41.745-78.207 27.651-167.194-31.481-198.757s-140.909 6.249-182.654 84.456c-41.745 78.207-27.651 167.194 31.481 198.757s140.909-6.249 182.654-84.456zM549.811 792.842c27.090 90.593 104.581 147.427 173.080 126.944s102.069-110.528 74.979-201.121c-27.090-90.593-104.581-147.427-173.080-126.944s-102.069 110.528-74.979 201.121zM783.828 533.050c41.745 78.207 123.52 116.021 182.648 84.459s73.22-120.547 31.475-198.754c-41.745-78.207-123.52-116.021-182.648-84.459s-73.22 120.547-31.475 198.754z" />
<glyph unicode="&#xe91b;" glyph-name="pgk" horiz-adv-x="967" d="M587.642 387.608l-131.973 155.928 314.088 310.784c23.702 23.456 23.934 61.658 0.457 85.354-23.388 23.75-61.699 23.866-85.34 0.471l-436.415-431.814h-18.091v392.308c0 33.369-27.013 60.368-60.368 60.368-33.369 0-60.368-26.999-60.368-60.368v-392.308l-0.007-120.723v-392.247c0-33.376 27.006-60.368 60.368-60.368s60.368 26.993 60.368 60.368v325.277l71.939 66.97 127.126 3.175 364.96-434.265c11.96-14.090 29.007-21.34 46.155-21.34 13.735 0 27.6 4.71 38.96 14.261 25.423 21.586 28.604 59.658 7.086 85.122l-298.947 353.048z" />
<glyph unicode="&#xe91d;" glyph-name="heart-full" horiz-adv-x="1169" d="M819.203 960c-84.545 0-188.923-45.57-234.844-67.806-45.921 22.235-150.292 67.806-234.852 67.806-168.785 0-349.507-146.48-349.507-364.546 0-118.872 95.475-265.555 283.759-435.993 20.902-18.914 259.762-223.462 300.631-223.462 9.738 0 19.265 2.892 27.366 8.327 56.992 38.203 556.962 380.989 556.962 651.127-0.008 218.066-180.706 364.546-349.514 364.546z" />
<glyph unicode="&#xe91f;" glyph-name="uniE91F" d="M78.198 25.037l61.087 223.043c-37.678 65.285-57.498 139.336-57.472 215.204 0.097 237.332 193.244 430.418 430.592 430.418 115.18-0.046 223.283-44.877 304.589-126.234 81.285-81.362 126.034-189.512 125.993-304.532-0.102-237.317-193.275-430.449-430.582-430.449-0.015 0 0.010 0 0 0h-0.184c-72.059 0.031-142.868 18.104-205.763 52.398zM317.036 162.816l13.071-7.757c54.938-32.594 117.929-49.838 182.154-49.874h0.138c197.253 0 357.796 160.507 357.883 357.775 0.031 95.601-37.161 185.498-104.73 253.117-67.574 67.62-157.42 104.883-253.020 104.919-197.407 0-357.944-160.481-358.026-357.745-0.026-67.599 18.888-133.437 54.717-190.403l8.52-13.532-36.163-132.024 135.455 35.523z" />
<glyph unicode="&#xe920;" glyph-name="uniE920" d="M93.174 878.659h834.877v-838.595h-834.877z" />
<glyph unicode="&#xe921;" glyph-name="uniE921" d="M78.198 893.701h864.829v-868.669h-864.829z" />
<glyph unicode="&#xe922;" glyph-name="uniE922" d="M404.787 643.22c-8.059 17.915-16.543 18.273-24.212 18.586-6.272 0.266-13.45 0.251-20.618 0.251-7.173 0-18.831-2.693-28.687-13.46-9.866-10.767-37.663-36.792-37.663-89.723 0-52.936 38.559-104.090 43.935-111.273 5.381-7.173 74.429-119.27 183.788-162.401 90.88-35.835 109.379-28.698 129.106-26.911 19.727 1.797 63.652 26.020 72.622 51.139 8.965 25.119 8.965 46.648 6.277 51.154-2.688 4.48-9.866 7.168-20.623 12.554-10.762 5.381-63.652 31.411-73.513 34.995s-17.034 5.381-24.212-5.391c-7.168-10.762-27.781-34.99-34.053-42.158-6.277-7.194-12.554-8.084-23.316-2.703-10.762 5.396-45.409 16.748-86.518 53.391-31.985 28.518-53.576 63.739-59.853 74.506-6.277 10.757-0.671 16.589 4.726 21.955 4.828 4.818 10.762 12.559 16.138 18.836 5.366 6.282 7.163 10.767 10.752 17.946 3.584 7.183 1.797 13.466-0.896 18.847-2.703 5.386-23.608 58.588-33.178 79.862z" />
<glyph unicode="&#xe923;" glyph-name="term" horiz-adv-x="1043" d="M1016.69 625.746h-990.611c-14.411 0-26.076-11.665-26.076-26.076v-533.283c0-71.895 58.492-130.387 130.38-130.387h782.030c71.888 0 130.352 58.492 130.352 130.387v533.283c0 14.411-11.665 26.076-26.076 26.076h0.001zM52.152 361.065h195.518v-160.377h-195.518zM299.822 361.065h195.469v-160.377h-195.469v160.377zM495.291 413.217h-195.469v160.377h195.469v-160.377zM547.444 573.594h195.518v-160.377h-195.518v160.377zM495.291 148.529v-160.377h-195.469v160.377h195.469zM547.444 148.529h195.518v-160.377h-195.518v160.377zM547.444 200.681v160.377h195.518v-160.377zM795.121 361.065h195.483v-160.377h-195.483zM990.604 413.217h-195.483v160.377h195.483v-160.377zM247.67 573.594v-160.377h-195.518v160.377h195.518zM52.152 66.387v82.142h195.518v-160.377h-117.29c-43.143 0-78.228 35.085-78.228 78.235zM912.411-11.848h-117.29v160.377h195.483v-82.142c0-43.15-35.085-78.235-78.193-78.235zM912.411 866.645h-117.29v67.279c0 14.418-11.672 26.076-26.083 26.076s-26.076-11.665-26.076-26.076v-67.272h-443.139v67.272c0 14.411-11.658 26.076-26.076 26.076-14.411 0-26.069-11.665-26.069-26.076v-67.272h-117.297c-71.888-0.007-130.38-58.499-130.38-130.387v-55.51c0-14.411 11.665-26.076 26.076-26.076h990.611c14.46 0 26.076 11.665 26.076 26.076v55.51c0 71.888-58.464 130.38-130.352 130.38zM273.746 698.732c-34.223 0-61.926 27.731-61.926 61.926 0 24.804 14.793 45.868 35.857 55.746v-55.746c0-14.411 11.658-26.069 26.069-26.069 14.418 0 26.076 11.658 26.076 26.069v55.746c21.057-9.878 35.857-30.942 35.857-55.746 0-34.203-27.71-61.926-61.933-61.926zM769.038 698.732c-34.223 0-61.926 27.731-61.926 61.926 0 24.804 14.793 45.868 35.85 55.746v-55.746c0-14.411 11.665-26.069 26.076-26.069s26.083 11.658 26.083 26.069v55.746c21.050-9.878 35.85-30.942 35.85-55.746 0-34.203-27.703-61.926-61.933-61.926z" />
<glyph unicode="&#xe924;" glyph-name="deposit" horiz-adv-x="1146" d="M1137.44 454.401l-536.798 495.518c-14.644 13.444-36.977 13.444-51.614 0l-536.813-495.518c-11.472-10.624-15.294-27.171-9.607-41.77 5.717-14.591 19.75-24.183 35.418-24.183h135.145v-414.417c0-21.019 17.006-38.024 38.017-38.024h727.295c21.011 0 38.017 17.006 38.017 38.024v414.417h135.153c15.676 0 29.693 9.592 35.433 24.183 5.671 14.598 1.842 31.146-9.646 41.77zM938.481 464.505c-21.019 0-38.032-17.021-38.032-38.032v-414.44h-651.246v414.44c0 21.011-17.006 38.032-38.017 38.032h-75.927l439.578 405.734 439.555-405.734zM536.813 536.075v-278.278l-53.571 55.244c-14.637 15.126-38.705 15.416-53.777 0.825-15.072-14.621-15.447-38.689-0.818-53.754l118.804-122.557c7.169-7.376 17.014-11.526 27.294-11.526 10.303 0 20.132 4.15 27.294 11.526l118.888 122.557c14.629 15.072 14.254 39.133-0.818 53.754-15.065 14.583-39.087 14.3-53.754-0.825l-53.502-55.107v278.14c0 21.019-17.021 38.017-38.017 38.017-21.026 0-38.024-16.998-38.024-38.017z" />
<glyph unicode="&#xe925;" glyph-name="rate" d="M509.87 956.129c-281.163 0-509.87-228.707-509.87-509.788 0-281.163 228.707-509.932 509.87-509.932s509.856 228.775 509.856 509.932c-0.007 281.081-228.7 509.788-509.856 509.788zM509.87 11.517c-239.718 0-434.756 195.038-434.756 434.825 0 239.712 195.038 434.674 434.756 434.674 239.698 0 434.756-194.97 434.756-434.674-0.007-239.787-195.058-434.825-434.756-434.825zM444.512 624.292c0 62.573-50.913 113.48-113.487 113.48-62.532 0-113.398-50.906-113.398-113.48 0-62.491 50.865-113.405 113.398-113.405 62.58-0.007 113.487 50.906 113.487 113.405zM292.741 624.292c0 21.129 17.169 38.359 38.284 38.359 21.169 0 38.373-17.231 38.373-38.359 0-21.122-17.203-38.291-38.373-38.291-21.115 0-38.284 17.162-38.284 38.291zM683.855 385.017c-62.539 0-113.391-50.906-113.391-113.555 0-62.484 50.852-113.391 113.391-113.391 62.525 0 113.391 50.906 113.391 113.391 0 62.648-50.865 113.555-113.391 113.555zM683.855 233.178c-21.135 0-38.284 17.169-38.284 38.284 0 21.204 17.155 38.434 38.284 38.434 21.122 0 38.284-17.224 38.284-38.434 0-21.115-17.162-38.284-38.284-38.284zM752.36 692.948c-14.671 14.671-38.427 14.671-53.105 0l-431.889-431.889c-14.671-14.671-14.671-38.441 0-53.105 7.332-7.339 16.944-10.998 26.556-10.998s19.224 3.659 26.549 10.998l431.896 431.882c14.657 14.671 14.657 38.441-0.007 53.111v0.001z" />
<glyph unicode="&#xe926;" glyph-name="price" horiz-adv-x="1150" d="M1137.3 454.434l-536.696 495.458c-14.561 13.511-36.985 13.442-51.615 0l-536.781-495.458c-11.473-10.614-15.289-27.175-9.61-41.736 5.717-14.63 19.742-24.202 35.422-24.202h135.142v-414.483c0-21.014 16.998-38.020 38.012-38.020h727.2c21.014 0 38.012 17.006 38.012 38.020v414.491h135.149c15.657 0 29.697 9.572 35.422 24.202 5.709 14.553 1.847 31.115-9.656 41.729zM938.373 464.534c-21.014 0-38.012-17.006-38.012-38.020v-414.483h-651.177v414.483c0 21.014-16.998 38.020-38.012 38.020h-75.924l439.544 405.685 439.459-405.685zM538.106 614.643v-26.662c-56.098-16.040-95.858-63.111-95.858-117.615 0-76.361 64.114-104.579 115.645-127.233 50.642-22.194 74.56-35.789 74.56-63.931 0-30.601-26.969-44.258-53.73-44.258-47.009 0-76.292 30.586-77.38 31.781-5.418 5.932-13.067 9.273-21.083 9.273-5.112-0.812-15.956-3.479-21.382-9.656l-15.289-17.366c-9.472-10.767-9.518-26.808-0.115-37.575 1.556-1.786 34.671-39.138 94.631-51.531v-24.141c0-15.734 12.768-28.517 28.509-28.517h22.623c15.726 0 28.517 12.783 28.517 28.517v24.961c57.232 14.615 95.329 60.888 95.329 119.554 0 82.63-69.793 112.779-120.803 134.843-47.116 20.339-69.318 32.525-69.318 55.799 0 21.719 22.041 44.181 58.987 44.181 35.874 0 60.221-23.16 60.298-23.236 6.016-6.093 14.4-9.204 23.098-8.238 8.53 0.851 16.255 5.533 20.93 12.737l12.768 19.45c7.357 11.143 5.947 25.873-3.341 35.452-1.341 1.379-28.946 29.375-77.955 39.177v24.248c0 15.734-12.791 28.509-28.517 28.509h-22.623c-15.734-0.015-28.501-12.791-28.501-28.524z" />
<glyph unicode="&#xe929;" glyph-name="user-black" d="M510.778 734.345c-104.707 0-189.897-85.19-189.897-189.925 0-104.707 85.19-189.897 189.897-189.897 104.735 0 189.959 85.19 189.959 189.897-0.007 104.735-85.224 189.925-189.959 189.925zM510.778 417.157c-70.164 0-127.249 57.078-127.249 127.256 0 70.171 57.085 127.283 127.249 127.283 70.212 0 127.317-57.112 127.317-127.283s-57.119-127.256-127.317-127.256zM511.939 959.973c-282.276 0-511.939-229.697-511.939-512.034 0-171.145 84.733-322.526 214.125-415.526 0.43-0.451 1.038-0.73 1.502-1.161 83.756-59.706 185.856-95.225 296.311-95.225 282.337 0 512.061 229.642 512.061 511.911 0 282.337-229.717 512.034-512.061 512.034zM275.763 66.492c24.624 56.429 54.538 114.893 66.499 124.682 20.767 13.681 118.292 35.997 168.578 35.997 50.203 0 147.715-22.33 168.052-35.697 12.411-10.124 42.735-69.27 67.482-126.095-68.335-42.025-148.48-66.703-234.435-66.703-86.685 0.007-167.444 25.108-236.175 67.816zM798.611 102.304c-24.562 55.706-58.573 123.986-84.828 141.21-37.519 24.651-153.027 46.312-202.95 46.312-49.985 0-165.581-21.661-202.957-46.312-26.064-17.073-59.679-84.248-84.214-139.728-98.311 82.493-161.014 206.111-161.014 344.153 0 247.801 201.551 449.386 449.29 449.386 247.801 0 449.42-201.585 449.42-449.386 0-138.848-63.386-263.154-162.748-345.634z" />
<glyph unicode="&#xe92a;" glyph-name="high-tech-white" horiz-adv-x="653" d="M552.065 958.593h-450.981c-55.826 0-101.084-45.258-101.084-101.084v-819.018c0-55.819 45.258-101.077 101.084-101.077h450.981c55.826 0 101.084 45.258 101.084 101.077v819.018c-0.006 55.826-45.265 101.084-101.084 101.084zM326.574-0.654c-39.436 0-71.409 31.967-71.409 71.409s31.973 71.415 71.409 71.415c39.429 0 71.409-31.967 71.409-71.415-0.006-39.442-31.98-71.409-71.409-71.409zM555.951 201.772c0-12.885-10.438-23.323-23.323-23.323h-412.107c-12.885 0-23.323 10.438-23.323 23.323v640.186c0 12.885 10.438 23.323 23.323 23.323h412.101c12.885 0 23.323-10.438 23.323-23.323v-640.186z" />
<glyph unicode="&#xe92b;" glyph-name="realestate-white" horiz-adv-x="1280" d="M643.653 678.903c-1.536 1.252-3.712 1.252-5.255 0l-438.38-357.373c-0.955-0.788-1.523-1.969-1.523-3.215v-344.914c0-20.631 16.764-37.402 37.402-37.402h249.33c20.612 0 37.402 16.771 37.402 37.402v263.88c0 16.035 13.046 29.088 29.088 29.088h178.625c16.035 0 29.094-13.046 29.094-29.088v-263.88c0-20.631 16.777-37.402 37.396-37.402h249.337c20.618 0 37.396 16.771 37.396 37.402v344.914c0 1.246-0.555 2.427-1.523 3.215l-438.389 357.373zM1279 442.335l-195.46 159.337c0 0.084 0.026 0.161 0.026 0.245v341.46c0 9.179-7.437 16.622-16.616 16.622h-133.593c-9.192 0-16.622-7.443-16.622-16.622v-205.724l-270.458 220.475c-3.053 2.492-7.449 2.492-10.503 0l-632.718-515.793c-3.434-2.815-4.054-7.83-1.42-11.394l60.667-82.028c1.343-1.827 3.389-3.021 5.642-3.305 2.285-0.303 4.532 0.368 6.294 1.807l566.796 462.058 566.796-462.058c1.491-1.214 3.357-1.878 5.248-1.878 0.336 0 0.684 0.026 1.026 0.071 2.259 0.284 4.306 1.478 5.648 3.305l60.667 82.028c2.647 3.563 2.021 8.579-1.42 11.394z" />
<glyph unicode="&#xe92c;" glyph-name="uniE92C" horiz-adv-x="1135" d="M1129.27 539.377c-7.976 7.21-146.212 0-146.212 0s-51.48 119.437-105.024 172.981-117.38 55.601-117.38 55.601h-380.942c-19.3-79.979-91.285-139.411-177.195-139.411-1.909 0-3.793 0.086-5.69 0.142-26.497-46.093-45.142-89.314-45.142-89.314s-138.224 7.21-146.206 0-2.063-57.658 16.47-72.078c18.533-14.42 80.313-10.299 80.313-10.299s-22.871-34.226-36.042-55.342c-13.659-21.925-33.978-41.441-33.978-115.576s8.241-107.082 20.597-125.615c5.783-8.661 12.887-15.494 18.836-20.344v-142.339c0-34.121 27.658-61.779 61.779-61.779h79.714c34.114 0 61.779 27.658 61.779 61.779v88.548h584.85v-88.548c0-34.121 27.665-61.779 61.779-61.779h79.714c34.121 0 61.779 27.658 61.779 61.779v142.339c5.949 4.856 13.054 11.689 18.83 20.344 12.356 18.534 20.597 51.48 20.597 125.615s-20.313 93.657-33.978 115.576c-13.165 21.116-36.042 55.342-36.042 55.342s61.779-4.121 80.313 10.299 24.458 64.868 16.483 72.078zM208.029 195.472c-46.334 0-101.935 22.654-101.935 80.313s55.601 81.202 90.605 81.202c35.016 0 113.266-70.904 113.266-114.149s-55.601-47.366-101.935-47.366zM258.477 461.122c0 62.811 33.978 119.437 64.868 152.39s44.283 45.303 77.224 45.303h333.606c32.953 0 46.334-12.356 77.224-45.303s64.868-89.58 64.868-152.39zM926.729 195.472c-46.334 0-101.935 4.121-101.935 47.366s78.249 114.149 113.253 114.149c35.016 0 90.618-23.538 90.618-81.202s-55.601-80.313-101.935-80.313z" />
<glyph unicode="&#xe92d;" glyph-name="uniE92D" horiz-adv-x="1135" d="M202.524 960c-82.358 0-149.135-66.771-149.135-149.135s66.777-149.135 149.135-149.135c82.37 0 149.135 66.771 149.135 149.135-0.006 82.364-66.765 149.135-149.135 149.135zM266.187 742.989c-17.002-17.008-39.6-26.373-63.669-26.373-24.051 0-46.668 9.366-63.682 26.373-17.002 17.014-26.38 39.637-26.38 63.682 0 24.057 9.378 46.662 26.38 63.682 17.014 17.008 39.631 26.38 63.682 26.38 12.226 0 24.069-2.446 34.985-7.055l-6.345 14.506c-2.218 5.060 0.074 10.972 5.152 13.19 5.041 2.212 10.953-0.086 13.19-5.146l20.208-46.106c1.291-2.959 1.087-6.357-0.568-9.137-1.65-2.774-4.535-4.584-7.753-4.862l-50.14-4.257c-0.29-0.025-0.568-0.037-0.859-0.037-5.146 0-9.52 3.942-9.965 9.168-0.457 5.511 3.614 10.354 9.137 10.818l23.217 1.977c-9.341 4.479-19.596 6.913-30.253 6.913-18.707 0-36.289-7.284-49.516-20.511s-20.517-30.815-20.517-49.516 7.296-36.289 20.517-49.522c13.227-13.221 30.803-20.511 49.516-20.511 18.701 0 36.295 7.29 49.528 20.511 13.227 13.233 20.511 30.822 20.511 49.522 0 5.529 4.479 10.014 10.002 10.014s10.027-4.485 10.027-10.014c0-24.057-9.378-46.68-26.404-63.688z" />
<glyph unicode="&#xe92e;" glyph-name="uniE92E" horiz-adv-x="1135" d="M425.732 549.169c0-23.365-6.036-32.471-21.53-32.471-15.488 0-21.524 9.106-21.524 32.471v57.331h-25.626v-63.873c0-32.286 17.187-50.801 47.156-50.801 29.975 0 47.162 18.515 47.162 50.801v63.873h-25.626v-57.331h-0.012z" />
<glyph unicode="&#xe92f;" glyph-name="uniE92F" horiz-adv-x="1135" d="M518.752 563.366c-11.262 3.41-19.232 6.295-19.232 12.393 0 7.568 12.523 8.155 16.359 8.155 9.007 0 17.879-2.749 29.666-9.193l4.096-2.243 2.619 26.398-1.544 1.032c-6.345 4.232-20.974 8.723-35.597 8.723-28.696 0-41.54-17.582-41.54-35.004 0-20.894 17.434-26.874 32.817-32.156l1.575-0.537c13.585-4.633 21.833-8 21.833-15.785 0-2.533 0-8.458-15.902-8.458-15.204 0-26.126 5.356-31.279 10.373l-4.572 4.454-3.126-30.414 1.582-1.032c5.85-3.806 19.034-8.248 36.938-8.248 38.519 0 44.271 21.357 44.271 34.090 0 25.657-22.475 32.459-38.964 37.45v0.002z" />
<glyph unicode="&#xe930;" glyph-name="uniE930" horiz-adv-x="1135" d="M608.913 540.001h37.382v25.014h-37.382v16.464h48.169v25.021h-74.258v-112.549h75.778v25.021h-49.689v21.029z" />
<glyph unicode="&#xe931;" glyph-name="uniE931" horiz-adv-x="1135" d="M727.232 606.5h-42.906v-112.549h42.906c33.206 0 55.508 22.617 55.508 56.275s-22.302 56.275-55.508 56.275v-0.001zM727.232 518.823h-17.28v62.811h17.28c18.095 0 28.060-11.151 28.060-31.402s-9.965-31.408-28.060-31.408v-0.001z" />
<glyph unicode="&#xe932;" glyph-name="gate" d="M833.444 652.995h-69.12c-10.26 0-18.555-8.284-18.555-18.545v-20.398l-194.13 177.49c-0.645 0.604-1.495 0.829-2.222 1.331-1.147 0.809-2.284 1.659-3.625 2.181-1.3 0.512-2.683 0.625-4.055 0.819-0.86 0.123-1.649 0.522-2.601 0.522-0.143 0-0.246-0.072-0.399-0.072-1.403-0.031-2.775-0.492-4.157-0.85-0.983-0.246-1.976-0.287-2.888-0.676-0.84-0.379-1.505-1.075-2.335-1.556-1.26-0.819-2.54-1.536-3.584-2.632-0.113-0.092-0.215-0.133-0.317-0.225-0.645-0.707-0.922-1.577-1.423-2.355-0.758-1.116-1.597-2.171-2.099-3.461-0.512-1.341-0.625-2.724-0.84-4.086-0.113-0.891-0.502-1.69-0.502-2.611v-399.882h-17.203v399.862c0 0.922-0.399 1.72-0.543 2.611-0.184 1.372-0.287 2.755-0.799 4.086-0.502 1.29-1.341 2.345-2.099 3.461-0.502 0.778-0.758 1.649-1.413 2.355-0.102 0.102-0.215 0.143-0.328 0.225-1.014 1.065-2.314 1.792-3.543 2.591-0.799 0.502-1.485 1.219-2.355 1.577-0.963 0.43-2.048 0.481-3.092 0.737-1.321 0.317-2.591 0.778-3.932 0.799-0.143 0.010-0.287 0.082-0.43 0.082-1.014 0-1.905-0.41-2.877-0.584-1.28-0.205-2.56-0.276-3.768-0.758-1.341-0.502-2.447-1.362-3.604-2.15-0.737-0.492-1.587-0.737-2.263-1.362l-194.099-177.449v20.378c0 10.26-8.294 18.545-18.545 18.545h-69.13c-10.25 0-18.545-8.284-18.545-18.545v-516.301c0-10.25 8.294-18.555 18.545-18.555h69.13c9.032 0 16.21 6.605 17.848 15.145h207.319c10.24 0 18.545 8.305 18.545 18.545v207.606h17.203v-207.606c0-10.24 8.294-18.545 18.555-18.545h207.299c1.638-8.54 8.796-15.145 17.859-15.145h69.12c10.26 0 18.555 8.305 18.555 18.555v516.301c-0.020 10.26-8.294 18.545-18.555 18.545zM466.33 377.969h-69.888v293.243c0 0.205-0.113 0.358-0.113 0.584l70.001 64zM359.352 637.993v-260.024h-81.111v185.846l81.111 74.178zM278.241 340.89h81.111v-189.071h-81.111v189.071zM466.33 151.818h-69.888v189.071h69.888zM633.19 340.89v-189.071h-75.5v189.071h75.5zM557.691 377.969v357.816l75.5-69.038v-288.778zM670.269 340.89h75.5v-189.071h-75.5v189.071zM745.769 377.969h-75.5v254.894l75.5-69.028v-185.866z" />
<glyph unicode="&#xe933;" glyph-name="commercial" d="M866.191 585.441c-3.348 3.963-8.294 6.257-13.486 6.257h-76.175l30.71 142.602c1.106 5.233-0.174 10.68-3.553 14.817-3.359 4.157-8.387 6.584-13.742 6.584h-64.082c-8.325 0-15.534-5.816-17.285-13.937l-32.328-150.057h-328.52l-32.328 150.057c-1.761 8.12-8.96 13.937-17.275 13.937h-64.072c-5.335 0-10.383-2.417-13.752-6.584-3.348-4.137-4.639-9.605-3.523-14.817l30.73-142.602h-76.227c-5.212 0-10.148-2.304-13.486-6.257-3.369-3.994-4.792-9.236-3.932-14.356l70.666-416.082c1.454-8.479 8.817-14.705 17.428-14.705h540.068c8.632 0 15.995 6.216 17.428 14.705l70.656 416.082c0.891 5.12-0.573 10.363-3.922 14.356h0.002zM814.244 452.977h-154.706l10.097 103.383h162.14zM790.692 314.317h-144.681l10.066 103.342h152.136zM413.522 314.317l-10.107 103.342h217.149l-10.076-103.342h-196.966zM607.017 278.979l-10.107-103.342h-169.841l-10.097 103.342h190.045zM215.777 417.659h152.146l10.097-103.342h-144.681zM399.964 452.977l-10.086 103.383h244.244l-10.097-103.383zM740.096 720.364h27.945l-27.74-128.655h-27.904zM255.939 720.364h27.935l27.73-128.655h-27.935zM354.355 556.36l10.107-103.383h-154.675l-17.562 103.383h162.13zM239.34 278.979h142.121l10.097-103.342h-134.676l-17.542 103.342zM767.13 175.636h-134.666l10.066 103.342h142.162z" />
<glyph unicode="&#xe934;" glyph-name="gym" d="M751.217 626.145h-83.548c-7.926 0-14.356-6.451-14.356-14.387v-114.33h-282.563v114.33c0 7.936-6.431 14.387-14.387 14.387h-83.569c-7.946 0-14.377-6.451-14.377-14.387v-327.516c0-7.956 6.42-14.377 14.377-14.377h83.569c7.956 0 14.387 6.42 14.387 14.377v114.258h282.563v-114.258c0-7.956 6.431-14.377 14.356-14.377h83.548c7.905 0 14.377 6.42 14.377 14.377v327.516c0.031 7.936-6.451 14.387-14.377 14.387zM370.749 427.284v41.39h282.563v-41.39h-282.563zM853.811 541.819l-41.81 28.027c-4.424 3-10.035 3.256-14.756 0.758-4.659-2.499-7.567-7.383-7.567-12.687v-219.894c0-5.294 2.908-10.179 7.567-12.677 2.14-1.106 4.454-1.7 6.799-1.7 2.806 0 5.642 0.86 8.038 2.458l41.728 28.068c3.994 2.693 6.349 7.168 6.349 11.95v163.758c0 4.782-2.355 9.267-6.349 11.94zM831.375 373.76l-12.964-8.724v165.908l12.964-8.735v-148.449zM226.796 570.593c-4.69 2.468-10.342 2.232-14.776-0.758l-41.789-28.027c-4.004-2.662-6.39-7.148-6.39-11.93v-163.758c0-4.782 2.386-9.257 6.349-11.95l41.8-28.068c2.417-1.638 5.222-2.458 8.028-2.458 2.335 0 4.639 0.594 6.779 1.7 4.69 2.499 7.608 7.404 7.608 12.677v219.884c0 5.304-2.929 10.189-7.608 12.687zM205.65 365.015l-13.036 8.755v148.439l13.036 8.735v-165.929z" />
<glyph unicode="&#xe935;" glyph-name="swimming" d="M225.065 285.624c31.109 0 45.865-9.462 62.945-20.419 18.668-11.96 39.813-25.487 80.384-25.487 40.581 0 61.747 13.527 80.425 25.487 17.121 10.957 31.887 20.419 63.027 20.419 31.15 0 45.978-9.462 63.099-20.419 18.678-11.96 39.864-25.487 80.456-25.487 40.622 0 61.778 13.527 80.476 25.487 17.121 10.957 31.898 20.419 63.058 20.419 8.919 0 16.138 7.199 16.138 16.118s-7.219 16.128-16.138 16.128c-40.602 0-61.778-13.548-80.445-25.508-17.121-10.957-31.898-20.419-63.089-20.419-31.16 0-45.957 9.462-63.078 20.419-16.384 10.476-35.451 21.637-67.031 24.381l106.516 234.301c5.765 12.687 5.407 25.661-1.014 35.625-5.335 8.253-14.223 13.199-23.798 13.199-13.906 0-25.764-9.738-32.481-28.16-42.199-116.419-96.43-183.173-149.914-183.173-60.406 0.993-109.783 97.075-136.315 148.695-6.789 13.23-12.421 24.105-16.804 31.017-12.739 20.132-42.24 22.866-52.869 5.54-4.413-7.178-7.588-19.804 2.304-39.27 18.831-37.069 99.492-208.968 123.382-259.973-15.933 3.502-27.003 10.179-38.892 17.787-18.647 11.96-39.793 25.508-80.353 25.508-8.909 0-16.128-7.209-16.128-16.128 0.010-8.888 7.219-16.087 16.138-16.087h0.001zM798.935 235.377c-40.602 0-61.778-13.537-80.456-25.518-17.121-10.957-31.898-20.398-63.089-20.398-31.16 0-45.947 9.441-63.078 20.398-18.688 11.981-39.864 25.518-80.476 25.518-40.581 0-61.737-13.537-80.415-25.518-17.121-10.957-31.887-20.398-63.037-20.398-31.119 0-45.875 9.441-62.976 20.398-18.647 11.981-39.793 25.518-80.353 25.518-8.909 0-16.128-7.219-16.128-16.118 0-8.919 7.219-16.138 16.128-16.138 31.109 0 45.865-9.441 62.945-20.398 18.668-11.981 39.813-25.518 80.384-25.518 40.581 0 61.747 13.537 80.425 25.518 17.121 10.957 31.887 20.398 63.027 20.398 31.16 0 45.967-9.441 63.089-20.398 18.698-11.981 39.875-25.518 80.466-25.518 40.632 0 61.778 13.537 80.466 25.518 17.132 10.957 31.898 20.398 63.078 20.398 8.899 0 16.118 7.219 16.118 16.138 0.031 8.899-7.188 16.118-16.118 16.118zM798.935 151.255c-40.602 0-61.778-13.558-80.456-25.518-17.121-10.957-31.898-20.398-63.089-20.398-31.16 0-45.947 9.441-63.078 20.398-18.688 11.96-39.864 25.518-80.476 25.518-40.581 0-61.737-13.558-80.415-25.518-17.121-10.957-31.887-20.398-63.037-20.398-31.119 0-45.875 9.441-62.976 20.398-18.647 11.96-39.793 25.518-80.353 25.518-8.909 0-16.128-7.219-16.128-16.138 0-8.899 7.219-16.118 16.128-16.118 31.109 0 45.865-9.441 62.945-20.398 18.668-11.981 39.813-25.518 80.384-25.518 40.581 0 61.747 13.537 80.425 25.518 17.121 10.957 31.887 20.398 63.027 20.398 31.16 0 45.967-9.441 63.089-20.398 18.698-11.981 39.875-25.518 80.466-25.518 40.632 0 61.778 13.537 80.466 25.518 17.132 10.957 31.898 20.398 63.078 20.398 8.899 0 16.118 7.219 16.118 16.118 0.031 8.919-7.188 16.138-16.118 16.138zM424.335 419.41c35.205 0 63.857 28.631 63.857 63.805s-28.641 63.816-63.857 63.816c-35.205 0-63.826-28.641-63.826-63.816s28.631-63.805 63.826-63.805zM702.157 676.393c40.397 0 73.257 32.85 73.257 73.257s-32.86 73.257-73.257 73.257c-40.366 0-73.216-32.85-73.216-73.257s32.85-73.257 73.216-73.257zM702.157 790.661c22.62 0 41.011-18.401 41.011-41.011s-18.391-41.011-41.011-41.011c-22.6 0-40.98 18.401-40.98 41.011s18.381 41.011 40.98 41.011z" />
<glyph unicode="&#xe936;" glyph-name="furnished" d="M827.238 587.366h-9.339v41.308c0 8.622-6.984 15.575-15.596 15.575h-580.659c-8.622 0-15.596-6.963-15.596-15.575v-41.308h-9.318c-8.612 0-15.585-6.973-15.585-15.575v-239.145c0-8.602 6.973-15.575 15.585-15.575h8.714v-49.725c0-8.622 6.973-15.585 15.596-15.585s15.596 6.994 15.596 15.585v49.725h550.717v-46.787c0-8.602 6.984-15.575 15.596-15.575 8.602 0 15.565 6.994 15.565 15.575v46.787h8.735c8.622 0 15.585 6.973 15.585 15.575v239.145c0.010 8.612-6.973 15.575-15.596 15.575zM237.251 613.069h549.478v-25.702h-9.339c-8.643 0-15.596-6.973-15.596-15.575v-103.977h-22.559c1.741 4.905 2.857 10.107 2.857 15.585v39.004c0 25.784-20.982 46.756-46.776 46.756h-143.514c-16.876 0-31.601-9.083-39.803-22.528-8.223 13.445-22.917 22.528-39.803 22.528h-143.503c-25.795 0-46.787-20.982-46.787-46.756v-39.004c0-5.478 1.126-10.68 2.877-15.585h-22.548v103.977c0 8.612-6.973 15.575-15.596 15.575h-9.38l-0.010 25.702h0.002zM313.098 483.389v39.014c0 8.581 7.004 15.575 15.596 15.575h143.503c8.581 0 15.585-7.004 15.585-15.575v-39.014c0-8.581-7.004-15.575-15.585-15.575h-143.503c-8.612 0-15.596 6.994-15.596 15.575zM536.177 483.389v39.014c0 8.581 7.025 15.575 15.585 15.575h143.514c8.602 0 15.585-7.004 15.585-15.575v-39.014c0-8.581-7.035-15.575-15.585-15.575h-143.473c-8.602 0-15.626 6.994-15.626 15.575zM262.226 436.644h499.548v-88.381h-499.548v88.381z" />
<glyph unicode="&#xe937;" glyph-name="air-condition" d="M560.855 511.304c3.441-5.919 9.626-9.226 16.015-9.226 3.144 0 6.308 0.788 9.196 2.437l45.015 26.010v-51.968c0-10.209 8.264-18.473 18.483-18.473 10.199 0 18.463 8.264 18.463 18.473v51.937l44.984-25.979c2.918-1.649 6.103-2.437 9.236-2.437 6.339 0 12.585 3.308 15.974 9.226 5.12 8.827 2.099 20.132-6.728 25.252l-45.015 25.958 45.015 25.969c8.827 5.13 11.848 16.415 6.728 25.252-5.069 8.868-16.415 11.827-25.211 6.779l-44.984-25.969v51.927c0 10.22-8.264 18.483-18.463 18.483-10.22 0-18.483-8.264-18.483-18.483v-51.958l-45.015 25.999c-8.858 5.1-20.122 2.068-25.221-6.779-5.1-8.837-2.079-20.122 6.758-25.252l45.015-25.969-45.015-25.958c-8.806-5.13-11.848-16.425-6.748-25.252zM788.204 742.666h-552.387c-24.873 0-45.087-20.224-45.087-45.076v-357.468c0-24.883 20.214-45.076 45.087-45.076h552.366c24.863 0 45.076 20.214 45.076 45.076v357.468c0.010 24.863-20.224 45.076-45.056 45.076h0.001zM235.817 705.731h552.366c4.495 0 8.161-3.656 8.161-8.141v-279.132h-568.678v279.132c0 4.485 3.666 8.141 8.151 8.141zM788.204 331.971h-552.387c-4.485 0-8.151 3.666-8.151 8.151v41.411h568.678v-41.411c0-4.485-3.656-8.151-8.141-8.151h0.001zM512 251.29c-10.209 0-18.463-8.274-18.463-18.473v-61.020c0-10.22 8.264-18.483 18.463-18.483 10.209 0 18.483 8.264 18.483 18.483v61.020c0 10.199-8.274 18.473-18.483 18.473zM753.603 251.29c-10.199 0-18.473-8.274-18.473-18.473v-61.020c0-10.22 8.274-18.483 18.473-18.483 10.209 0 18.463 8.264 18.463 18.483v61.020c-0.010 10.199-8.253 18.473-18.463 18.473zM391.219 251.29c-10.209 0-18.463-8.274-18.463-18.473v-61.020c0-10.22 8.253-18.483 18.463-18.483s18.463 8.264 18.463 18.483v61.020c0 10.199-8.264 18.473-18.463 18.473zM270.408 251.29c-10.209 0-18.463-8.274-18.463-18.473v-61.020c0-10.22 8.264-18.483 18.463-18.483 10.209 0 18.473 8.264 18.473 18.483v61.020c-0.010 10.199-8.264 18.473-18.473 18.473zM632.812 251.29c-10.209 0-18.473-8.274-18.473-18.473v-61.020c0-10.22 8.264-18.483 18.473-18.483s18.473 8.264 18.473 18.483v61.020c0 10.199-8.264 18.473-18.473 18.473z" />
<glyph unicode="&#xe938;" glyph-name="balcony" d="M813.097 349.563h-106.854v419.205c0 9.708-7.854 17.562-17.562 17.562h-353.362c-9.708 0-17.562-7.854-17.562-17.562v-419.205h-106.865c-9.708 0-17.562-7.854-17.562-17.562v-204.769c0-9.687 7.854-17.562 17.562-17.562h602.204c9.697 0 17.562 7.875 17.562 17.562v204.769c0 9.708-7.834 17.562-17.562 17.562zM709.018 144.804h-23.081c0.205 1.495 0.881 2.796 0.881 4.383v160.87c0 1.556-0.676 2.877-0.881 4.393h23.081c-0.205-1.505-0.901-2.826-0.901-4.393v-160.881c0-1.577 0.707-2.877 0.901-4.372zM319.846 314.45h23.081c-0.205-1.505-0.891-2.826-0.891-4.393v-160.881c0-1.577 0.686-2.877 0.891-4.403h-23.081c0.215 1.505 0.891 2.806 0.891 4.403v160.881c0 1.567-0.686 2.888-0.891 4.393zM411.382 314.45h23.040c-0.205-1.505-0.891-2.826-0.891-4.393v-160.881c0-1.577 0.686-2.877 0.891-4.403h-23.040c0.205 1.505 0.891 2.806 0.891 4.403v160.881c0 1.567-0.686 2.888-0.891 4.393zM502.876 314.45h23.112c-0.215-1.505-0.891-2.826-0.891-4.393v-160.881c0-1.577 0.676-2.877 0.891-4.403h-23.112c0.205 1.505 0.881 2.806 0.881 4.403v160.881c0 1.567-0.676 2.888-0.881 4.393zM594.442 314.45h23.040c-0.205-1.505-0.881-2.826-0.881-4.393v-160.881c0-1.577 0.676-2.877 0.881-4.403h-23.040c0.205 1.505 0.901 2.806 0.901 4.403v160.881c0 1.567-0.707 2.888-0.901 4.393zM525.056 349.563v183.265h146.063v-183.265h-146.063zM671.119 567.951h-146.063v183.265h146.063v-183.265zM489.943 751.217v-183.265h-137.073v183.265h137.073zM352.87 532.828h137.073v-183.265h-137.073v183.265zM228.454 314.45h22.938c-0.205-1.505-0.891-2.826-0.891-4.393v-160.881c0-1.577 0.686-2.877 0.891-4.403h-22.938v169.677zM795.535 144.804h-18.084c0.215 1.495 0.901 2.796 0.901 4.383v160.87c0 1.556-0.676 2.877-0.901 4.393h18.084v-169.646z" />
<glyph unicode="&#xe939;" glyph-name="cleaning" d="M815.677 751.636c-9.923 9.933-22.579 14.92-35.482 14.336-13.548-0.727-26.696-7.373-39.117-19.794l-236.237-236.237-37.775 37.806c-5.816 5.786-14.746 6.912-21.791 2.857l-242.248-140.042c-4.864-2.785-8.141-7.731-8.888-13.261-0.707-5.571 1.157-11.182 5.151-15.135l246.886-246.897c3.42-3.42 8.008-5.294 12.769-5.294 0.778 0 1.546 0.041 2.355 0.154 5.54 0.737 10.476 4.024 13.261 8.878l140.063 242.196c4.076 7.055 2.918 16.015-2.857 21.801l-37.806 37.806 236.237 236.237c29.532 29.501 21.422 58.634 5.478 74.588zM455.107 177.459l-31.744 31.744 70.113 100.413c5.714 8.192 3.707 19.436-4.475 25.149-8.11 5.652-19.405 3.738-25.149-4.485l-66.447-95.15-36.362 36.362 82.534 82.534c7.055 7.045 7.055 18.483 0 25.528-7.055 7.055-18.483 7.055-25.539 0l-82.534-82.534-36.362 36.372 95.191 66.447c8.182 5.714 10.199 16.957 4.485 25.149-5.745 8.212-17.039 10.117-25.149 4.475l-100.454-70.154-31.744 31.744 148.593 85.924 150.948-150.917-85.903-148.603zM576.44 387.277l-16.681-28.887-137.308 137.277 28.887 16.722zM784.681 702.597l-236.237-236.237-18.063 18.053 236.237 236.237c5.745 5.724 11.244 9.042 15.483 9.236 1.065 0 4.055 0.215 8.038-3.799 2.929-2.898 9.032-9.032-5.458-23.491v0.001z" />
<glyph unicode="&#xe93a;" glyph-name="flower-garden" d="M726.743 191.201h-112.558c-2.734 40.663-12.995 112.599-36.383 158.74 1.321 1.782 2.796 3.359 3.963 5.284 9.636 15.913 12.503 34.601 8.059 52.654-2.324 9.38-8.315 23.060-16.538 36.987 13.302-8.499 26.593-14.93 36.536-17.684 6.062-1.72 12.38-2.58 18.668-2.58 31.058 0 58.614 20.931 66.98 50.934 4.987 17.889 2.734 36.618-6.4 52.818-9.134 16.261-24.054 27.924-41.974 32.922-8.745 2.417-20.582 3.738-33.403 3.891 11.54 6.267 21.443 13.128 27.668 19.128 13.445 12.769 21.125 29.993 21.586 48.517 0.44 18.606-6.349 36.26-19.21 49.797-25.59 26.737-71.772 27.812-98.427 2.345-6.943-6.666-15.319-18.022-22.917-31.191 0.645 15.268-0.317 29.44-2.632 38.851-9.052 36.659-47.462 60.017-84.275 50.862-18.074-4.444-33.311-15.708-42.906-31.58-9.615-15.923-12.452-34.642-7.997-52.623 2.14-8.755 7.598-21.34 14.991-34.324-12.452 7.823-24.637 13.732-33.628 16.353-36.127 10.394-75.899-11.633-86.272-47.534-10.66-36.864 10.639-75.51 47.452-86.221 9.667-2.775 22.917-4.362 37.315-4.362 0.481 0 1.29 0.041 1.823 0.041-13.568-7.096-25.375-15.124-32.512-22.067-27.443-26.808-27.996-70.984-1.249-98.386 13.21-13.578 30.945-21.084 49.91-21.084 18.278 0 35.512 7.025 48.548 19.763 6.943 6.779 14.264 17.019 20.91 28.416-0.399-13.179 0.399-25.774 2.703-35.174 7.639-31.222 35.41-53.064 67.533-53.064 5.591 0 11.141 0.666 16.62 2.028 2.079 0.512 3.994 1.434 6.001 2.099 16.302-36.567 26.020-95.785 28.785-134.584h-194.048c-11.233 0-20.316-9.083-20.316-20.316s9.083-20.306 20.316-20.306h347.269c11.223 0 20.306 9.083 20.306 20.306 0.010 11.244-9.083 20.347-20.296 20.347zM487.281 567.255c18.565 0 33.69-15.124 33.69-33.7 0-18.565-15.124-33.638-33.69-33.638s-33.669 15.084-33.669 33.638c0 18.575 15.094 33.7 33.669 33.7zM653.681 508.406c3.768-6.748 4.731-14.52 2.662-21.944-4.157-15.084-20.511-24.443-35.625-20.193-23.962 6.697-59.945 36.823-60.467 46.418 2.714 4.28 22.272 11.899 51.62 11.899 9.687 0 18.811-0.922 24.33-2.458 7.434-2.048 13.681-6.973 17.48-13.722zM573.409 655.575c11.069 10.67 30.239 10.23 40.919-1.044 5.345-5.632 8.212-12.974 8.008-20.705-0.215-7.649-3.379-14.797-9.042-20.193-11.602-11.121-45.722-28.18-65.884-28.18-2.816 0-4.372 0.358-4.844 0.358-0.082 0-0.123-0.041-0.164-0.041-4.219 10.004 13.24 52.777 31.007 69.806zM427.346 690.831c4.004 6.636 10.383 11.315 17.92 13.179 2.324 0.563 4.69 0.881 7.025 0.881 13.312 0 24.842-9.093 28.058-22.067 5.898-23.962-2.499-69.755-11.028-75.459-10.926 1.352-39.404 37.652-45.251 61.573-1.884 7.537-0.707 15.319 3.277 21.893h-0.001zM338.473 546.57c-15.34 4.444-24.177 20.562-19.743 35.871 3.553 12.37 14.991 20.951 27.812 20.951 2.744 0 5.458-0.399 8.1-1.106 23.869-6.994 59.587-37.53 60.006-47.053-2.499-3.901-20.316-11.438-50.196-11.438-10.342 0-20.050 1.044-25.979 2.775zM402.586 410.522c-11.069-10.783-30.198-10.455-40.97 0.563-11.131 11.418-10.885 29.839 0.522 40.991 11.735 11.418 45.967 28.877 65.997 28.877 2.836 0 4.506-0.317 4.618-0.276 4.413-10.004-12.524-52.972-30.167-70.154v-0.001zM494.060 384.379c-5.929 24.115 2.683 70.267 10.752 75.418 10.598-0.553 39.598-37.478 45.558-61.614 1.823-7.496 0.645-15.258-3.379-21.903-4.014-6.615-10.414-11.305-17.93-13.158-15.073-3.82-31.242 5.939-35 21.258z" />
<glyph unicode="&#xe93b;" glyph-name="reception" d="M401.275 453.335c14.141 0 26.194 8.53 31.56 20.654 22.825-14.858 49.951-23.685 79.176-23.685s56.361 8.837 79.165 23.757c5.335-12.186 17.418-20.716 31.56-20.716 21.217 0 47.534 2.632 62.28 23.153 15.555 21.596 7.619 45.261 0.645 66.15-5.13 15.36-10.957 32.768-10.957 53.094 0 89.672-72.96 162.642-162.652 162.714h-0.123c-89.702-0.072-162.673-73.042-162.673-162.714 0-20.285-5.837-37.704-10.967-53.094-6.984-20.859-14.92-44.554 0.645-66.15 14.787-20.531 41.073-23.163 62.341-23.163zM412.109 548.444c3.482 13.701 6.277 29.327 6.277 47.288 0 51.61 41.994 93.553 93.624 93.594 51.579-0.041 93.553-41.984 93.553-93.594 0-17.981 2.796-33.577 6.267-47.288-17.807-37.468-55.665-63.58-99.83-63.58-44.175 0-82.074 26.112-99.891 63.58zM828.068 172.145h-81.326c-0.922 7.547-17.633 146.074-38.82 191.959-23.859 51.722-124.938 63.181-136.376 64.317-4.864 0.563-9.667-1.065-13.322-4.383-3.625-3.236-5.683-7.895-5.683-12.79v-239.114h-81.070v239.114c0 4.895-2.058 9.554-5.673 12.79-3.645 3.297-8.54 4.915-13.332 4.383-11.438-1.137-112.527-12.595-136.376-64.317-21.197-45.885-37.908-184.412-38.81-191.959h-81.336c-9.554 0-17.285-7.772-17.285-17.285 0-9.605 7.731-17.285 17.285-17.285h632.125c9.554 0 17.285 7.7 17.285 17.285 0.010 9.513-7.731 17.285-17.285 17.285z" />
<glyph unicode="&#xe93c;" glyph-name="riverside" d="M860.754 346.982c-48.968 0-74.527-16.394-97.096-30.822-20.972-13.404-39.127-24.996-77.394-24.996s-56.422 11.602-77.394 24.996c-22.589 14.428-48.118 30.822-97.116 30.822-48.937 0-74.476-16.394-97.004-30.822-20.972-13.404-39.096-24.996-77.322-24.996-38.195 0-56.3 11.571-77.251 24.996-22.528 14.428-48.046 30.822-96.952 30.822-10.107 0-18.289-8.192-18.289-18.309 0-10.107 8.182-18.309 18.289-18.309 38.185 0 56.269-11.561 77.21-24.996 22.548-14.428 48.087-30.802 96.993-30.802 48.937 0 74.496 16.374 97.055 30.802 20.972 13.445 39.055 24.996 77.281 24.996 38.277 0 56.433-11.602 77.394-24.996 22.589-14.428 48.128-30.802 97.116-30.802 48.998 0 74.527 16.374 97.116 30.802 20.961 13.404 39.117 24.996 77.373 24.996 10.127 0 18.309 8.202 18.309 18.309-0.010 10.117-8.192 18.309-18.319 18.309h0.001zM860.754 242.964c-48.968 0-74.527-16.374-97.096-30.802-20.972-13.394-39.127-25.016-77.394-25.016s-56.422 11.633-77.394 25.016c-22.589 14.428-48.118 30.802-97.116 30.802-48.937 0-74.476-16.374-97.004-30.802-20.972-13.394-39.096-25.016-77.322-25.016-38.195 0-56.3 11.592-77.251 25.016-22.528 14.428-48.046 30.802-96.952 30.802-10.107 0-18.289-8.192-18.289-18.309 0-10.097 8.182-18.278 18.289-18.278 38.185 0 56.269-11.581 77.21-25.016 22.548-14.438 48.087-30.781 96.993-30.781 48.937 0 74.496 16.343 97.055 30.781 20.972 13.445 39.055 25.016 77.281 25.016 38.277 0 56.433-11.622 77.394-25.016 22.589-14.438 48.128-30.781 97.116-30.781 48.998 0 74.527 16.343 97.116 30.781 20.961 13.404 39.117 25.016 77.373 25.016 10.127 0 18.309 8.182 18.309 18.278-0.010 10.117-8.192 18.309-18.319 18.309h0.001zM163.215 386.13h697.539c10.127 0 18.309 8.192 18.309 18.278 0 10.107-8.182 18.299-18.309 18.299h-206.705v117.443h40.694c7.537 0 14.295 4.608 17.019 11.643 2.755 7.025 0.911 14.981-4.639 20.091l-182.753 168.694c-7.014 6.461-17.787 6.461-24.791 0l-182.753-168.694c-5.53-5.11-7.363-13.066-4.628-20.091 2.744-7.035 9.492-11.643 17.029-11.643h40.694v-117.443h-206.705c-10.107 0-18.289-8.192-18.289-18.299 0-10.086 8.182-18.278 18.289-18.278h-0.001zM533.627 422.707h-43.274v83.169h43.274v-83.169zM388.209 576.727h-12.186l135.967 125.501 135.946-125.501h-12.186c-10.117 0-18.299-8.172-18.299-18.278v-135.741h-47.237v101.478c0 10.097-8.182 18.278-18.278 18.278h-79.852c-10.107 0-18.309-8.182-18.309-18.278v-101.478h-47.268v135.741c-0.010 10.107-8.192 18.278-18.299 18.278h0.001z" />
<glyph unicode="&#xe93d;" glyph-name="school" d="M865.925 371.855l-336.282 316.14v30.321l147.589 34.98c7.946 1.874 13.558 8.96 13.558 17.142 0 8.151-5.612 15.258-13.558 17.132l-160.768 38.134c-0.727 0.184-1.454-0.051-2.171 0.010-0.788 0.102-1.485 0.461-2.273 0.461-0.727 0-1.311-0.328-1.997-0.399-0.891-0.143-1.72-0.276-2.55-0.512-2.099-0.584-3.922-1.485-5.642-2.703-0.102-0.082-0.276-0.082-0.379-0.195-0.072-0.031-0.072-0.123-0.143-0.174-4.086-3.215-6.912-8.018-6.912-13.64v-120.566l-336.312-316.129c-7.086-6.666-7.444-17.828-0.758-24.914 3.471-3.717 8.151-5.581 12.831-5.581 4.342 0 8.684 1.577 12.083 4.823l50.729 47.698v-306.452c0-9.779 7.885-17.623 17.623-17.623h522.834c9.738 0 17.623 7.844 17.623 17.623v306.463l50.719-47.698c7.086-6.676 18.237-6.4 24.924 0.758 6.666 7.076 6.318 18.237-0.768 24.904zM530.012 786.289l66.775-15.841-66.775-15.811v31.652zM488.612 105.052v139.479h47.462v-139.479zM755.804 105.052h-184.494v157.102c0 9.779-7.885 17.623-17.623 17.623h-82.688c-9.738 0-17.623-7.844-17.623-17.623v-157.102h-185.18v321.935l243.825 229.212 243.784-229.212v-321.935zM453.028 431.534c0-32.481 26.429-58.911 58.952-58.911s58.993 26.429 58.993 58.911c0 32.563-26.47 58.993-58.993 58.993s-58.952-26.44-58.952-58.993zM535.726 431.534c0-13.036-10.67-23.675-23.747-23.675s-23.706 10.629-23.706 23.675c0 13.076 10.629 23.747 23.706 23.747s23.747-10.67 23.747-23.747z" />
<glyph unicode="&#xe93e;" glyph-name="security" d="M757.197 123.924c-0.748 6.267-18.483 153.825-40.796 202.199-24.556 53.197-129.884 65.147-141.804 66.355-7.086 0.604-13.189-3.205-15.8-9.482l-46.797-112.845-46.797 112.855c-2.611 6.277-8.765 10.138-15.811 9.492-11.919-1.208-117.207-13.158-141.773-66.345-22.333-48.384-40.059-195.942-40.806-202.199-0.512-4.413 0.86-8.776 3.789-12.083 2.949-3.318 7.137-5.192 11.551-5.192h459.735c4.413 0 8.602 1.874 11.53 5.192 2.939 3.267 4.291 7.649 3.779 12.052v0.001zM512 421.13c83.149 0 150.804 67.666 150.804 150.825 0 17.797-3.645 34.642-9.359 50.504 2.222 1.065 4.485 2.12 6.021 4.076-2.54 0.922-6.523 2.263-11.121 3.758-1.802 0.584-3.584 1.137-5.642 1.782-27.013 8.397-76.943 21.217-130.703 21.217-53.975 0-103.864-12.851-130.796-21.228-2.232-0.676-4.147-1.3-6.052-1.925-4.393-1.434-8.161-2.714-10.619-3.615 1.536-1.935 3.789-3.021 6.001-4.065-5.724-15.862-9.37-32.686-9.37-50.514 0-83.149 67.666-150.815 150.835-150.815zM400.364 614.543c27.638-5.888 71.526-13.64 111.626-13.64 40.090 0 83.968 7.741 111.626 13.64 5.14-13.261 8.284-27.515 8.284-42.578 0-66.13-53.791-119.931-119.9-119.931-66.13 0-119.931 53.801-119.931 119.931 0 15.073 3.133 29.327 8.294 42.578h0.001zM346.45 652.155c0.768 0.492 1.393 1.137 2.263 1.485 1.536 0.604 20.275 7.875 48.742 15.176 18.258 4.659 40.581 9.134 65.137 12.083 15.8 1.905 32.256 3.287 49.398 3.287 17.121 0 33.587-1.382 49.367-3.287v0c24.596-2.959 47.002-7.434 65.26-12.114 28.406-7.291 47.114-14.541 48.64-15.145 0.881-0.348 1.495-0.993 2.284-1.485l37.437 53.596c2.662 3.799 3.471 8.602 2.202 13.066-1.26 4.454-4.444 8.12-8.704 9.964l-95.16 41.339c-1.065 0.471-2.161 0.809-3.297 1.014l-95.16 17.94c-1.905 0.369-3.83 0.369-5.734 0l-95.171-17.94c-1.126-0.205-2.232-0.543-3.287-1.014l-95.15-41.339c-4.26-1.843-7.455-5.509-8.704-9.964-1.28-4.465-0.451-9.267 2.191-13.066l37.448-53.596z" />
<glyph unicode="&#xe93f;" glyph-name="shared-house" d="M863.396 449.362l-337.766 311.798c-2.632 2.437-5.816 3.738-9.083 4.485-0.829 0.195-1.577 0.358-2.437 0.471-3.338 0.358-6.676 0.041-9.82-1.26-0.113-0.041-0.236 0-0.348-0.041-0.358-0.154-0.471-0.512-0.829-0.707-1.649-0.829-3.338-1.649-4.751-2.949l-337.807-311.798c-6.072-5.652-8.1-14.387-5.089-22.129 3.021-7.741 10.455-12.769 18.749-12.769h88.863v-264.591c0-11.080 9.001-20.122 20.122-20.122h155.013c11.121 0 20.122 9.042 20.122 20.122v201.236h107.336v-201.236c0-11.080 9.001-20.122 20.122-20.122h154.982c11.121 0 20.122 9.042 20.122 20.122v264.591h88.863c8.305 0 15.729 5.028 18.76 12.769 3.021 7.741 0.983 16.476-5.12 22.129zM438.211 391.352c-11.121 0-20.122-8.96-20.122-20.122v-201.236h-114.76v264.591c0 11.080-9.001 20.122-20.122 20.122h-57.518l266.189 245.729v-309.084h-53.668z" />
<glyph unicode="&#xe940;" glyph-name="short-stay" d="M870.461 449.239l-344.545 318.054c-7.885 7.25-19.948 7.25-27.853 0l-344.525-318.054c-6.185-5.714-8.253-14.653-5.192-22.548 3.092-7.875 10.67-13.046 19.128-13.046h90.644v-269.844c0-11.336 9.175-20.531 20.521-20.531h466.729c11.336 0 20.521 9.185 20.521 20.531v269.844h90.644c8.458 0 16.036 5.181 19.118 13.046 3.072 7.885 1.004 16.824-5.192 22.548zM745.359 454.687c-11.366 0-20.521-9.175-20.521-20.531v-269.834h-425.677v269.834c0 11.356-9.175 20.531-20.531 20.531h-58.675l292.045 269.578 292.024-269.578h-58.665zM491.469 568.136v-180.224l-120.791-120.812c-8.018-8.018-8.018-21.012 0-29.030 4.014-4.014 9.257-6.011 14.51-6.011s10.496 1.997 14.51 6.011l126.792 126.853c3.85 3.85 6.031 9.062 6.031 14.51v188.703c0 11.356-9.175 20.541-20.521 20.541s-20.531-9.185-20.531-20.541z" />
<glyph unicode="&#xe941;" glyph-name="hospital" d="M803.584 769.597h-583.168c-9.206 0-16.66-7.455-16.66-16.66v-609.853c0-9.236 7.455-16.66 16.66-16.66h583.168c9.196 0 16.66 7.424 16.66 16.66v609.853c0 9.206-7.465 16.66-16.66 16.66zM495.34 159.744h-75.233v182.692h75.233v-182.692zM528.66 159.744v182.692h75.244v-182.692zM786.924 159.744h-149.699v199.352c0 9.236-7.455 16.66-16.66 16.66h-217.129c-9.206 0-16.66-7.424-16.66-16.66v-199.352h-149.699v576.532h549.837v-576.532zM389.673 501.914h72.376v-72.387c0-9.175 7.455-16.66 16.66-16.66h66.58c9.206 0 16.66 7.475 16.66 16.66v72.387h72.366c9.216 0 16.66 7.455 16.66 16.66v66.58c0 9.206-7.444 16.66-16.66 16.66h-72.366v72.376c0 9.206-7.455 16.66-16.66 16.66h-66.58c-9.206 0-16.66-7.455-16.66-16.66v-72.376h-72.376c-9.206 0-16.66-7.455-16.66-16.66v-66.58c0-9.216 7.455-16.66 16.66-16.66zM406.333 568.494h72.376c9.206 0 16.66 7.455 16.66 16.66v72.376h33.249v-72.376c0-9.206 7.465-16.66 16.671-16.66h72.366v-33.26h-72.366c-9.206 0-16.671-7.455-16.671-16.66v-72.376h-33.249v72.376c0 9.206-7.455 16.66-16.66 16.66h-72.376z" />
<glyph unicode="&#xe942;" glyph-name="hot-water" d="M354.949 715.745c-7.956-9.032-194.867-222.085-194.867-332.943 0-115.159 93.747-208.906 208.957-208.906 115.2 0 208.947 93.747 208.947 208.906 0 110.848-186.89 323.912-194.857 332.943-7.158 8.079-21.033 8.079-28.18 0zM369.039 211.466c-94.505 0-171.387 76.872-171.387 171.336 0 73.769 113.009 222.689 171.387 291.727 58.378-69.028 171.377-217.897 171.377-291.727-0.010-94.464-76.872-171.336-171.377-171.336zM389.345 254.003c61.768 0 111.995 50.268 111.995 112.015 0 10.394-8.407 18.78-18.79 18.78s-18.78-8.387-18.78-18.78c0-41.062-33.382-74.455-74.424-74.455-10.383 0-18.78-8.387-18.78-18.78s8.397-18.78 18.78-18.78zM807.782 351.416v334.92c0 43.459-27.412 58.88-50.852 58.88-13.875 0-25.989-4.762-35.011-13.804-10.527-10.557-15.892-25.733-15.852-45.087v-64.563c0-0.041-0.041-0.092-0.041-0.133v-270.203c-33.28-18.135-56.156-53.064-56.156-93.573 0-59.034 48.026-107.059 107.008-107.059 59.013 0 107.028 48.026 107.028 107.059 0 40.509-22.886 75.387-56.125 93.563h0.001zM748.524 704.87c0.666 0.676 2.755 2.765 8.407 2.765 4.321 0 13.271 0 13.271-21.299v-45.926h-26.563v45.926c0 8.796 1.72 15.38 4.884 18.534h0.001z" />
<glyph unicode="&#xe943;" glyph-name="internet" d="M512.010 287.744c-32.717 0-59.351-26.665-59.351-59.392s26.634-59.32 59.351-59.32c32.727 0 59.361 26.593 59.361 59.32 0 32.717-26.634 59.392-59.361 59.392zM512.010 436.367c-62.761 0-121.743-24.433-166.113-68.772-6.339-6.359-6.339-16.62 0-22.979 6.349-6.328 16.63-6.328 22.968 0 38.226 38.195 89.057 59.259 143.145 59.259s104.909-21.064 143.135-59.259c3.185-3.164 7.342-4.741 11.5-4.741 4.137 0 8.315 1.577 11.479 4.741 6.339 6.359 6.339 16.62 0 22.979-44.38 44.349-103.363 68.772-166.113 68.772h-0.001zM512.010 580.782c-99.932 0-193.905-38.892-264.581-109.568-6.349-6.339-6.349-16.62 0-22.958 3.174-3.185 7.322-4.762 11.479-4.762s8.315 1.577 11.489 4.762c64.532 64.522 150.344 100.055 241.613 100.055s177.080-35.533 241.613-100.055c6.339-6.359 16.62-6.359 22.958 0 6.339 6.339 6.339 16.62 0 22.958-70.656 70.676-164.598 109.568-264.571 109.568zM883.579 573.051c-99.215 99.246-231.188 153.907-371.569 153.907-140.36 0-272.323-54.661-371.599-153.907-6.349-6.359-6.349-16.64 0-22.979 6.339-6.339 16.62-6.339 22.968 0 93.143 93.143 216.955 144.404 348.631 144.404 131.666 0 255.498-51.261 348.611-144.404 3.185-3.174 7.363-4.762 11.469-4.762 4.198 0 8.325 1.587 11.489 4.762 6.349 6.339 6.349 16.62 0 22.979z" />
<glyph unicode="&#xe944;" glyph-name="laundry" d="M527.892 271.309c54.712 0 99.205 44.472 99.205 99.154 0 9.185-7.444 16.63-16.63 16.63s-16.63-7.444-16.63-16.63c0-36.321-29.604-65.894-65.946-65.894-9.185 0-16.64-7.444-16.64-16.63s7.444-16.63 16.64-16.63h0.001zM803.092 803.707h-582.175c-9.196 0-16.64-7.444-16.64-16.64v-678.154c0-9.165 7.444-16.63 16.64-16.63h582.175c9.185 0 16.63 7.465 16.63 16.63v678.154c0 9.206-7.444 16.64-16.63 16.64zM237.548 770.437h548.905v-102.564h-548.905v102.564zM786.463 125.553h-548.915v509.061h548.905v-509.061zM512 198.584c100.884 0 182.968 82.115 182.968 182.989s-82.094 182.968-182.968 182.968-182.968-82.104-182.968-182.968c0-100.884 82.094-182.989 182.968-182.989zM512 531.272c82.555 0 149.699-67.154 149.699-149.699s-67.144-149.719-149.699-149.719-149.699 67.174-149.699 149.719 67.144 149.699 149.699 149.699zM303.626 744.11c-13.814 0-24.955-11.182-24.955-24.955s11.141-24.955 24.955-24.955c13.773 0 24.955 11.182 24.955 24.955s-11.182 24.955-24.955 24.955zM724.562 735.785h-341.402c-9.185 0-16.63-7.444-16.63-16.63s7.444-16.63 16.63-16.63h341.402c9.196 0 16.64 7.444 16.64 16.63s-7.444 16.63-16.64 16.63z" />
<glyph unicode="&#xe945;" glyph-name="lift" d="M714.803 592.333h-405.596c-8.653 0-15.657-7.035-15.657-15.657v-487.485c0-8.622 7.004-15.647 15.657-15.647h405.576c8.643 0 15.657 7.045 15.657 15.647v487.485c0.010 8.632-7.025 15.657-15.636 15.657h-0.001zM699.136 104.847h-374.272v456.182h374.272v-456.182zM512 436.449c25.508 0 46.295 20.726 46.295 46.295 0 25.498-20.787 46.295-46.295 46.295-25.539 0-46.295-20.797-46.295-46.295 0-25.569 20.756-46.295 46.295-46.295zM405.258 313.641c4.71 0 9.4 1.71 13.138 5.14l39.629 36.495v-202.68c0-10.629 8.684-19.384 19.415-19.384 10.701 0 19.395 8.745 19.395 19.384v118.118c4.844-1.454 9.861-2.447 15.165-2.447s10.322 1.014 15.155 2.447v-118.098c0-10.639 8.704-19.395 19.405-19.395 10.732 0 19.415 8.745 19.415 19.395v202.66l39.619-36.495c3.697-3.43 8.407-5.14 13.117-5.14 5.222 0 10.455 2.14 14.295 6.236 7.219 7.895 6.717 20.183-1.126 27.464l-72.991 67.267c-7.864 7.281-31.795 6.554-46.909 6.554-15.165 0-39.045 0.727-46.909-6.554l-72.98-67.267c-7.875-7.281-8.397-19.569-1.116-27.464 3.84-4.096 9.032-6.236 14.285-6.236zM376.904 714.465c7.045 0 14.008 3.185 18.637 9.175l4.782 6.236v-86.538c0-12.974 10.516-23.48 23.48-23.48s23.48 10.516 23.48 23.48v86.508l4.751-6.205c7.895-10.271 22.702-12.237 32.922-4.28 10.271 7.895 12.227 22.63 4.342 32.901l-46.879 61.030c-0.287 0.369-0.748 0.492-1.055 0.85-1.546 1.772-3.379 3.154-5.386 4.403-0.84 0.522-1.505 1.219-2.396 1.618-2.99 1.372-6.267 2.294-9.789 2.294s-6.789-0.922-9.789-2.294c-0.881-0.399-1.556-1.096-2.396-1.618-2.007-1.26-3.84-2.632-5.376-4.403-0.307-0.369-0.768-0.492-1.055-0.85l-46.899-61.030c-7.905-10.271-5.98-25.016 4.311-32.901 4.28-3.297 9.308-4.895 14.316-4.895zM581.56 629.033c0.276-0.369 0.768-0.522 1.065-0.85 1.526-1.802 3.4-3.185 5.458-4.465 0.778-0.492 1.423-1.157 2.284-1.556 3.041-1.403 6.277-2.294 9.82-2.294 3.553 0 6.779 0.881 9.82 2.294 0.86 0.399 1.495 1.065 2.294 1.556 2.048 1.28 3.932 2.662 5.478 4.465 0.266 0.338 0.748 0.492 1.055 0.85l46.858 60.979c7.916 10.271 6.001 25.016-4.28 32.901-10.271 7.946-24.975 5.99-32.932-4.28l-4.813-6.236v86.6c0 12.964-10.506 23.48-23.48 23.48-12.964 0-23.48-10.516-23.48-23.48v-86.538l-4.782 6.185c-7.895 10.271-22.682 12.227-32.922 4.28-10.291-7.895-12.196-22.63-4.291-32.901l46.848-60.989z" />
<glyph unicode="&#xe946;" glyph-name="main-road" d="M840.202 247.624l-171.796 422.328c-5.949 14.653-22.794 21.699-37.335 15.739-14.653-5.96-21.688-22.671-15.729-37.325l171.786-422.339c4.536-11.1 15.237-17.838 26.542-17.838 3.604 0 7.26 0.666 10.793 2.13 14.653 5.949 21.699 22.651 15.739 37.304v0.001zM396.319 685.691c-14.715 5.96-31.345-1.034-37.325-15.739l-171.807-422.328c-5.949-14.653 1.096-31.355 15.749-37.304 3.553-1.464 7.188-2.13 10.793-2.13 11.295 0 22.006 6.738 26.532 17.838l171.796 422.339c5.96 14.653-1.085 31.365-15.739 37.325zM505.59 673.475c-7.916 0-14.316-6.38-14.316-14.326v-42.936c0-7.895 6.4-14.316 14.316-14.316s14.305 6.431 14.305 14.316v42.936c0 7.946-6.39 14.326-14.305 14.326zM505.59 562.524c-7.916 0-14.316-6.38-14.316-14.305v-100.219c0-7.895 6.4-14.305 14.316-14.305s14.305 6.42 14.305 14.305v100.219c0 7.926-6.39 14.305-14.305 14.305zM505.59 362.086c-7.916 0-14.316-6.369-14.316-14.305v-110.95c0-7.895 6.4-14.305 14.316-14.305s14.305 6.42 14.305 14.305v110.95c0 7.936-6.39 14.305-14.305 14.305z" />
<glyph unicode="&#xe947;" glyph-name="paid-tv" d="M785.285 686.305h-239.841l77.732 105.605c5.54 7.516 3.922 18.135-3.604 23.685-7.516 5.519-18.115 3.922-23.675-3.604l-83.937-114.063-83.927 114.074c-5.54 7.516-16.128 9.124-23.665 3.604-7.516-5.55-9.144-16.159-3.604-23.685l77.732-105.605h-239.8c-46.653 0-84.603-37.96-84.603-84.613v-349.716c0-46.643 37.949-84.603 84.603-84.603h256.358v-56.443h-168.96c-9.359 0-16.927-7.557-16.927-16.896 0-9.359 7.567-16.916 16.927-16.916h371.753c9.339 0 16.916 7.557 16.916 16.916 0 9.339-7.578 16.896-16.916 16.896h-168.96v56.443h256.399c46.664 0 84.613 37.96 84.613 84.603v349.716c0 46.643-37.949 84.603-84.613 84.603zM836.055 251.976c0-27.986-22.774-50.76-50.76-50.76h-546.601c-27.996 0-50.77 22.774-50.77 50.76v349.727c0 27.996 22.774 50.76 50.77 50.76h546.591c27.986 0 50.76-22.764 50.76-50.76v-349.727h0.010zM749.916 581.97h-479.59c-9.349 0-16.916-7.567-16.916-16.927v-287.683c0-9.339 7.567-16.916 16.916-16.916h479.59c9.359 0 16.916 7.578 16.916 16.916v287.683c0.010 9.359-7.557 16.927-16.916 16.927zM733 294.298h-445.747v253.819h445.747v-253.819z" />
<glyph unicode="&#xe948;" glyph-name="park-tree" d="M724.357 373.443c38.154 0 70.717 27.085 78.377 63.959 21.801 14.92 35.062 39.66 35.062 66.038 0 47.247-40.161 86.077-89.324 79.78-13.322 27.177-40.776 44.739-71.639 44.739-30.884 0-58.337-17.551-71.823-44.739-2.857 0.358-5.601 0.287-8.356 0.317-3.922 51.917-46.92 93.082-99.82 93.082-4.506 0-9.175-0.399-14.080-1.188-16.189 35.553-51.323 58.655-90.952 58.655-39.639 0-74.772-23.101-90.982-58.644-4.864 0.809-9.513 1.178-14.131 1.178-55.419 0-100.506-45.097-100.506-100.557 0-33.546 17.203-64.922 45.332-83.528 8.95-46.971 50.094-81.613 98.335-81.613 5.734 0 11.387 0.492 16.937 1.444v-160.461h-121.283c-7.69 0-13.916-6.195-13.916-13.926 0-7.66 6.216-13.906 13.916-13.906h573c7.721 0 13.906 6.246 13.906 13.906 0 7.731-6.185 13.926-13.906 13.926h-76.698v121.713c0.85-0.041 1.669-0.174 2.55-0.174zM453.806 410.921c32.963 0 62.29 16.404 80.62 41.585 4.792-5.704 10.26-10.885 16.476-15.135 7.66-36.895 40.243-63.928 78.316-63.928 0.87 0 1.741 0.184 2.611 0.215v-121.784h-195.041v160.461c5.581-0.922 11.254-1.413 17.019-1.413zM258.099 502.702c-0.512 4.403-3.103 8.264-6.932 10.435-22.917 12.995-37.12 37.11-37.12 62.925 0 40.090 32.614 72.714 72.673 72.714 5.786 0 11.858-0.922 19.057-2.929 7.322-2.099 14.787 2.109 17.050 9.236 9.564 30.607 37.294 51.169 69.018 51.169 31.754 0 59.423-20.552 68.936-51.139 2.232-7.188 9.728-11.387 17.070-9.257 7.168 2.007 13.261 2.929 19.016 2.929 40.11 0 72.724-32.625 72.724-72.714 0-25.815-14.254-49.93-37.059-62.925-3.871-2.171-6.42-6.052-6.973-10.435-0.686-5.765-2.263-11.203-4.178-16.425-0.072-0.184-0.164-0.338-0.215-0.532-10.455-27.638-36.833-46.991-67.359-46.991-19.681 0-38.164 7.854-52.029 22.067-2.611 2.683-6.195 4.219-9.953 4.219s-7.342-1.536-9.953-4.198c-13.916-14.244-32.369-22.088-51.999-22.088-36.506 0-67.348 27.453-71.772 63.939h-0.002zM374.641 421.745c6.001 3.021 11.807 6.441 17.183 10.68 5.335-4.239 11.151-7.66 17.132-10.68v-169.841h-34.314v169.841h-0.001zM693.975 251.904h-34.314v127.785c6.042 2.468 11.858 5.489 17.203 9.421 5.294-3.932 11.1-6.953 17.121-9.421v-127.785zM704.778 189.737h-385.587c-7.69 0-13.916-6.185-13.916-13.906 0-7.66 6.226-13.906 13.916-13.906h385.587c7.731 0 13.916 6.246 13.916 13.906 0.010 7.731-6.185 13.906-13.916 13.906z" />
<glyph unicode="&#xe949;" glyph-name="pet-friendly" d="M511.99 447.416c-54.968 0-129.741-43.151-181.862-104.94-42.906-50.883-62.044-105.083-53.903-152.678 6.799-39.496 38.4-62.157 86.702-62.157 22.774 0 49.285 12.759 77.343 26.245 25.917 12.483 52.716 25.364 71.711 25.364 18.985 0 45.783-12.882 71.711-25.364 28.047-13.476 54.548-26.245 77.343-26.245 48.302 0 79.913 22.661 86.702 62.198 8.141 47.544-10.988 101.765-53.914 152.617-52.101 61.809-126.894 104.96-181.832 104.96h-0.001zM714.127 195.604c-1.444-8.397-5.816-33.864-53.094-33.864-15.002 0-39.178 11.622-62.546 22.876-29.379 14.1-59.73 28.723-86.497 28.723-26.778 0-57.139-14.623-86.497-28.723-23.378-11.264-47.565-22.876-62.556-22.876-47.268 0-51.651 25.457-53.105 33.823-6.41 37.499 10.045 81.879 46.367 124.938 44.616 52.9 111.585 92.815 155.781 92.815 44.165 0 111.145-39.916 155.771-92.836 36.321-43.080 52.797-87.419 46.377-124.877zM404.101 519.926c7.895 0 15.698 1.147 23.183 3.4 52.603 15.708 79.186 82.739 59.269 149.391-19.671 65.833-79.38 108.042-131.533 92.375-26.358-7.885-46.909-28.375-57.846-57.733-10.312-27.668-10.824-60.252-1.393-91.699 16.835-56.351 61.389-95.734 108.319-95.734h0.001zM329.134 695.46c7.107 19.077 19.784 32.215 35.645 36.956 4.332 1.311 8.827 1.946 13.404 1.946 31.498 0 63.334-30.034 75.715-71.414 14.541-48.65-1.782-96.625-36.372-106.957-34.109-10.322-74.916 22.057-89.068 69.437-7.301 24.381-7.076 49.265 0.676 70.031v0.001zM305.91 510.3c-22.692 42.465-62.925 69.908-102.441 69.908-13.261 0-25.733-3.062-37.038-9.103-23.050-12.298-38.308-35.215-42.977-64.563-4.352-27.556 1.27-57.815 15.872-85.176 22.682-42.496 62.894-69.96 102.451-69.96 13.271 0 25.743 3.082 37.1 9.144 45.824 24.515 57.969 91.689 27.034 149.75zM262.789 390.636c-28.611-15.34-72.11 6.902-93.389 46.776-11.11 20.869-15.483 43.52-12.268 63.795 2.939 18.534 11.95 32.655 25.344 39.823 6.328 3.389 13.384 5.079 20.982 5.079 26.696 0 55.788-20.838 72.356-51.855 22.098-41.492 16.251-87.972-13.025-103.619v0.001zM605.225 523.325c7.516-2.253 15.329-3.4 23.214-3.4 46.93 0 91.494 39.383 108.349 95.744 19.907 66.673-6.666 133.714-59.259 149.432-52.183 15.606-111.852-26.552-131.594-92.375-19.917-66.662 6.697-133.693 59.29-149.402zM578.611 662.938c12.401 41.4 44.268 71.434 75.745 71.434 4.557 0 9.073-0.645 13.394-1.946 34.58-10.342 50.893-58.337 36.362-106.977-14.203-47.38-54.979-79.565-89.119-69.437-34.591 10.322-50.924 58.317-36.383 106.926h0.001zM900.547 506.552c-4.628 29.317-19.876 52.255-42.947 64.563-11.325 6.042-23.777 9.103-37.069 9.103-39.537 0-79.759-27.443-102.492-69.939-30.915-58.061-18.76-125.235 27.116-149.719 11.315-6.062 23.788-9.144 37.059-9.144 39.547 0 79.739 27.464 102.451 69.939 14.623 27.382 20.255 57.641 15.882 85.197zM854.559 437.422c-21.309-39.885-64.727-62.065-93.348-46.797-29.297 15.657-35.174 62.147-13.066 103.598 16.568 31.058 45.681 51.896 72.387 51.896 7.639 0 14.684-1.69 21.023-5.079 13.425-7.158 22.405-21.289 25.344-39.803 3.185-20.306-1.188-42.957-12.339-63.816zM511.621 349.655c-24.689 16.056-72.008 3.901-72.038-37.284 0-37.98 52.654-73.585 63.201-80.343 2.796-1.782 6.001-2.683 9.196-2.683s6.369 0.901 9.175 2.683c10.557 6.758 63.252 42.363 63.252 80.343 0 13.343-5.612 25.303-15.77 33.638-15.739 12.954-41.155 14.152-57.016 3.645zM511.969 267.162c-18.237 13.476-38.277 33.423-38.277 45.22 0 10.445 11.868 10.557 12.37 10.557 2.908 0 8.090-0.758 10.424-5.857 2.857-6.195 8.96-9.738 16.005-9.964 6.84 0.205 12.913 4.485 15.391 10.865 1.751 4.485 7.076 4.956 9.288 4.956 0.133 0 13.148-0.123 13.148-10.557-0.010-11.745-20.091-31.703-38.349-45.22z" />
<glyph unicode="&#xe94a;" glyph-name="plane-expat" d="M837.396 639.263c-8.182 15.124-30.444 22.804-66.243 22.804-21.32 0-45.404-2.836-64.399-7.588-29.358-7.301-336.773-169.677-390.799-198.287-12.892 3.185-46.909 10.772-78.356 10.772-20.204 0-35.666-3.062-47.247-9.277-3.584-1.935-6.113-5.356-6.892-9.339-0.778-4.004 0.266-8.11 2.847-11.274l105.964-128.645c3.154-3.82 8.192-5.571 13.056-4.69 11.254 2.202 49.347 19.087 242.401 129.065l29.297-228.219c0.645-5.181 4.239-9.533 9.175-11.162 1.413-0.461 2.847-0.686 4.301-0.686 3.615 0 7.127 1.434 9.728 4.106 1.577 1.628 39.322 40.847 45.711 85.719 4.168 29.266 3.082 157.768 2.468 208.005 33.516 19.323 63.478 36.68 86.2 49.838 24.054 13.937 39.895 23.132 44.073 25.385 9.892 5.335 26.47 14.254 39.813 24.975 25.938 20.931 24.607 37.919 18.903 48.497zM764.785 589.189c-3.226-1.761-19.343-11.090-43.776-25.242-24.228-14.060-56.74-32.881-93.041-53.801-4.239-2.458-6.84-7.025-6.789-11.94 1.126-87.255 1.188-188.703-2.099-211.804-2.365-16.835-10.875-33.3-19.22-46.111l-27.781 216.105c-0.604 4.506-3.369 8.407-7.444 10.445-1.915 0.942-3.973 1.423-6.042 1.423-2.345 0-4.639-0.604-6.738-1.802-168.161-96.082-225.72-125.542-244.593-133.53l-87.101 105.759c4.762 0.686 10.516 1.106 17.449 1.106 35.226 0 76.083-11.059 76.493-11.162 3.338-0.901 6.892-0.543 9.933 1.096 139.674 73.994 368.855 193.29 389.304 198.39 16.732 4.178 38.902 6.779 57.815 6.779 31.334 0 41.38-6.738 42.414-8.684 0.133-1.731-1.505-11.602-48.783-37.028zM476.641 562.115c2.181-1.352 4.659-2.028 7.137-2.028 2.345 0 4.69 0.614 6.789 1.823 24.719 14.285 49.91 28.744 73.667 42.25 4.434 2.509 7.045 7.281 6.861 12.349-0.215 5.079-3.226 9.605-7.854 11.756-50.278 23.46-138.209 63.826-162.048 70.789-9.564 2.796-20.142 4.219-31.416 4.219-32.123 0-60.303-11.418-61.481-11.909-4.721-1.935-7.956-6.369-8.376-11.438-0.41-5.089 2.058-9.984 6.4-12.657l170.322-105.155zM393.585 672.973c14.582-4.26 63.007-25.272 134.38-58.255-14.51-8.294-29.266-16.783-43.95-25.242l-136.94 84.521c14.572 2.601 32.911 2.97 46.51-1.024z" />
<glyph unicode="&#xe94b;" glyph-name="exit" d="M80 824l6-657 254-129-2 666zM768 320v128h-320v128h320v128l192-192zM704 384v-256h-320v-192l-384 192v832h704v-320h-64v256l-564 3 308-131v-576h256v192h64z" />
<glyph unicode="&#xe94c;" glyph-name="eye" d="M512 693.76c-183.221 0-345.791-91.896-446.72-233.6-2.427-3.324-3.883-7.492-3.883-12s1.456-8.676 3.924-12.058c100.889-141.648 263.458-233.862 446.679-233.862s345.791 92.214 446.72 233.92c2.427 3.324 3.883 7.492 3.883 12s-1.456 8.676-3.924 12.058c-100.889 141.645-263.458 233.542-446.679 233.542zM512 652.8c164.147 0 309.631-80.211 403.84-204.8-94.213-124.506-239.758-204.8-403.84-204.8s-309.627 80.294-403.84 204.8c94.209 124.589 239.693 204.8 403.84 204.8zM512 591.36c-78.933 0-143.36-64.427-143.36-143.36s64.427-143.36 143.36-143.36 143.36 64.427 143.36 143.36-64.427 143.36-143.36 143.36zM512 550.4c56.797 0 102.4-45.603 102.4-102.4s-45.603-102.4-102.4-102.4-102.4 45.604-102.4 102.4 45.603 102.4 102.4 102.4z" />
</font>
</defs>
</svg>
